(Darkwave / Minimal / Coldwave) [WEB] Milliken Chamber - Collection (2 Releases) - 2017-2019, FLAC (tracks), lossless

Reply to topic
DL-List and Torrent activity [Update пиров]
Size:  373 MB   |    Registered:  7 months 25 days   |    Completed:  0 times

Seeder not seen: Never

 
   
 
 
 
Author Message

Пушистый

Post 17-Feb-2019 13:05

[Quote]

-Milliken Chamber-- -Жанр: Darkwave / Minimal / Coldwave
Страна: USA (Grand Rapids, Michigan)
Аудиокодек: FLAC (*.flac)
Тип рипа: tracks
Битрейт аудио: lossless
Продолжительность: 00:58:59
Наличие сканов в содержимом раздачи: нет
--

Состав


Anna Schmidt & Kevin Czarnik
-

2017 - Lily Of The Valley (EP)

Издатель (лейбл): Self-Released
Номер по каталогу: none
Продолжительность: 00:21:15
Носитель: WEB
Источник: собственная покупка
Трек-лист:
01. Forgotten. (04:49)
02. Figure In The Night. (04:06)
03. Concrete. (04:49)
04. Mirrors And Sheets. (03:39)
05. Winter Light. (03:51)

Лог проверки качества

-----------------------
DON'T MODIFY THIS FILE
-----------------------
PERFORMER: auCDtect Task Manager, ver. 1.6.0 RC1 build 1.6.0.1Copyright (c) 2008-2010 y-soft. All rights reservedhttp://y-soft.org
ANALYZER: auCDtect: CD records authenticity detector, version 0.8.2Copyright (c) 2004 Oleg Berngardt. All rights reserved.Copyright (c) 2004 Alexander Djourik. All rights reserved.
FILE: 01. Forgotten.flac Size: 29796755 Hash: 868F0AAE570BFCBD45CE47170B61859B Accuracy: -m0 Conclusion: CDDA 100% Signature: 19BD02922FB6732CB50B106E5EB27EC7AAF33D46FILE: 02. Figure In The Night.flac Size: 25736186 Hash: 75E6106518C49A1690F2BEDF28F89601 Accuracy: -m0 Conclusion: CDDA 100% Signature: F19B4A5454989E52F9357A2474820181096EF584FILE: 03. Concrete.flac Size: 29228463 Hash: 492E228DD0CA8E881B9A1AC6D11A2392 Accuracy: -m0 Conclusion: CDDA 100% Signature: A4C5AD53B612347BD3CF74D174A9A5D03A03D561FILE: 04. Mirrors And Sheets.flac Size: 21434384 Hash: BFD313E88A8097022F0F80C677CF8F8D Accuracy: -m0 Conclusion: CDDA 99% Signature: 6ACD14433472F9F1C91C803D176D933D4B225E5FFILE: 05. Winter Light.flac Size: 21990574 Hash: D7324EDBE78A364B9590B556563E197C Accuracy: -m0 Conclusion: CDDA 100% Signature: 0B17A0DBD3417F77B1CDB049CBEA2FECFD037618

Замер динамического диапазона

foobar2000 1.3.4 / Замер динамического диапазона (DR) 1.1.1Дата отчёта: 2019-02-13 06:53:08
--------------------------------------------------------------------------------Анализ: Milliken Chamber / Lily Of The Valley--------------------------------------------------------------------------------
DR Пики RMS Продолжительность трека--------------------------------------------------------------------------------DR7 -0.10 дБ -8.48 дБ 4:49 01-ForgottenDR6 -0.10 дБ -7.73 дБ 4:06 02-Figure in the NightDR6 -1.16 дБ -9.49 дБ 4:49 03-ConcreteDR8 -0.11 дБ -9.69 дБ 3:39 04-Mirrors and SheetsDR7 -0.11 дБ -9.00 дБ 3:51 05-Winter Light--------------------------------------------------------------------------------
Количество треков: 5Реальные значения DR: DR7
Частота: 44100 ГцКаналов: 2Разрядность: 16Битрейт: 757 кбит/сКодек: FLAC================================================================================

2019 - Absence

Издатель (лейбл): Self-Released
Номер по каталогу: none
Продолжительность: 00:37:44
Носитель: WEB
Источник: собственная покупка
Трек-лист:
01. Cruel Excess. (02:04)
02. Bodies. (03:40)
03. Fallen Heart. (04:15)
04. Cadence. (04:34)
05. Lowly. (05:11)
06. Reflections Of The Statue. (02:25)
07. Disorder. (04:14)
08. Death Will Come. (03:30)
09. Last Embrace. (03:26)
10. Faceless. (04:26)

Лог проверки качества

-----------------------
DON'T MODIFY THIS FILE
-----------------------
PERFORMER: auCDtect Task Manager, ver. 1.6.0 RC1 build 1.6.0.1Copyright (c) 2008-2010 y-soft. All rights reservedhttp://y-soft.org
ANALYZER: auCDtect: CD records authenticity detector, version 0.8.2Copyright (c) 2004 Oleg Berngardt. All rights reserved.Copyright (c) 2004 Alexander Djourik. All rights reserved.
FILE: 01. Cruel Excess.flac Size: 13167863 Hash: 6CE22D9437E854E2219D370596111E69 Accuracy: -m0 Conclusion: CDDA 100% Signature: DC5B9B89FD5E98C74775D8D14566F9FFF323FCFDFILE: 02. Bodies.flac Size: 26015096 Hash: 1BFC3391FD49B2E7F767BA93A2D97A5D Accuracy: -m0 Conclusion: CDDA 100% Signature: A92EE4F84DB147CC3F579A03D89B2A611F9ABA51FILE: 03. Fallen Heart.flac Size: 30292049 Hash: 553EB63C394FFB3D550F4899C583BA79 Accuracy: -m0 Conclusion: CDDA 100% Signature: C2034AADFDBC5532394E1744D352D8192F177BCCFILE: 04. Cadence.flac Size: 31580263 Hash: 4E952E1A72F833C7116F56EE7511F305 Accuracy: -m0 Conclusion: CDDA 100% Signature: 3E3016F61CBE859E1A4C533ADD5F07AF43E79609FILE: 05. Lowly.flac Size: 31878282 Hash: 6212F20378AE5FEED12E32EC091D7BE9 Accuracy: -m0 Conclusion: CDDA 100% Signature: D574C53D3ABED0B06CBB38EB2154437682362550FILE: 06. Reflections of the Statue.flac Size: 17375424 Hash: F61A8DFD8FDD9100C9073B5776C35471 Accuracy: -m0 Conclusion: CDDA 100% Signature: 2520E663A946D39CCEFE89DD29DF9CE1F46DEED3FILE: 07. Disorder.flac Size: 25143642 Hash: F678DD704CA877DA2504A7B1D6087892 Accuracy: -m0 Conclusion: CDDA 100% Signature: 1AF086B50C6ADCDAE5EE3A1B0CE4F9673A536046FILE: 08. Death Will Come.flac Size: 22510876 Hash: 81B1A4DBF1C03C70A94915099F2BF829 Accuracy: -m0 Conclusion: CDDA 100% Signature: 87E8C290869FEF0882B28DF9B53375D0EE4C13ABFILE: 09. Last Embrace.flac Size: 22654023 Hash: 42280B77F7DCDF09891DD561B7CE5D13 Accuracy: -m0 Conclusion: CDDA 100% Signature: 9127EBCD95DB77FBDE70AC58E9A6F8E230990687FILE: 10. Faceless.flac Size: 27419784 Hash: C1D4D5957C6E5AC90116D1AFCD627674 Accuracy: -m0 Conclusion: CDDA 100% Signature: B4529926DCA2F02A47446FB3D4B4CE701BCDB88D

Замер динамического диапазона

foobar2000 1.3.4 / Замер динамического диапазона (DR) 1.1.1Дата отчёта: 2019-02-13 00:33:35
--------------------------------------------------------------------------------Анализ: Milliken Chamber / Absence--------------------------------------------------------------------------------
DR Пики RMS Продолжительность трека--------------------------------------------------------------------------------DR10 -0.20 дБ -12.92 дБ 2:04 01-Cruel ExcessDR6 0.00 дБ -7.45 дБ 3:40 02-BodiesDR6 0.00 дБ -7.94 дБ 4:15 03-Fallen HeartDR5 0.00 дБ -6.62 дБ 4:34 04-CadenceDR6 0.00 дБ -7.02 дБ 5:11 05-LowlyDR6 0.00 дБ -8.85 дБ 2:25 06-Reflections of the StatueDR6 0.00 дБ -7.16 дБ 4:14 07-DisorderDR6 0.00 дБ -8.21 дБ 3:30 08-Death Will ComeDR4 0.00 дБ -6.20 дБ 3:26 09-Last EmbraceDR5 0.00 дБ -6.76 дБ 4:26 10-Faceless--------------------------------------------------------------------------------
Количество треков: 10Реальные значения DR: DR6
Частота: 44100 ГцКаналов: 2Разрядность: 16Битрейт: 819 кбит/сКодек: FLAC================================================================================
-Prudence (pre-Milliken Chamber) - Strange Memories - 2016-


[geo-torrent.biz]_t_5690957.torrent
Torrent: Registered ·  [ 2019-02-17 13:05 ] ·  1639dbee2ee5863526b6bda1b7f26884b7f0f083

17 KB

Status: checked
Completed: 0 times
Size: 373 MB
Rating: 
(Votes: 0)
Say thanks: 0  Thanks
Похожие темы
[Profile]    [PM]
Display posts from previous:    
Reply to topic

The time now is: Today 09:13

All times are GMT + 7 Hours



You cannot post new topics in this forum
You cannot reply to topics in this forum
You cannot edit your posts in this forum
You cannot delete your posts in this forum
You cannot vote in polls in this forum
You cannot attach files in this forum
You can download files in this forum