[TR24][OF] Wonders Of Nature - Highland Echoes - 2018 (Ambient / Atmospheric)

Ответить на тему
Статистика раздачи [Обновить пиров]
Размер:  669 MB   |    Зарегистрирован:  1 месяц 8 дней   |    Скачан:  0 раз

Полного источника не было: Никогда

 
   
 
 
 
Автор Сообщение

Кейт

Создавать темы 17-Фев-2019 02:37

[Цитировать]

Wonders Of Nature / Highland Echoes- Дата релиза: July 2, 2016
Жанр: Ambient / Atmospheric
Страна исполнителя (группы): Russia, Murmansk, Nikel
Продолжительность: 01:08:51
Наличие сканов: нет
-Источник (релизер): Bandcamp-
1. Ancient Tree, Pt. I (02:39)
2. Ancient Tree, Pt. II (02:21)
3. Ancient Tree, Pt. III (02:06)
4. Ancient Tree, Pt. IV (03:22)
5. Ancient Tree, Pt. V (03:12)
6. Dark Forest, Pt. I (01:17)
7. Dark Forest, Pt. II (02:24)
8. Dark Forest, Pt. III (01:55)
9. Dark Forest, Pt. IV (02:14)
10. Dark Forest, Pt. V (01:43)
11. Gentle Darkness, Pt. I (04:03)
12. Gentle Darkness, Pt. II (02:59)
13. Gentle Darkness, Pt. III (03:50)
14. Gentle Darkness, Pt. IV (03:12)
15. Gentle Darkness, Pt. V (03:09)
16. Trough The Mist, Pt. I (03:09)
17. Trough The Mist, Pt. II (02:59)
18. Trough The Mist, Pt. III (03:10)
19. Trough The Mist, Pt. IV (03:01)
20. Trough The Mist, Pt. V (02:29)
21. Windy Forest, Pt. I (02:37)
22. Windy Forest, Pt. II (02:16)
23. Windy Forest, Pt. III (01:47)
24. Windy Forest, Pt. IV (04:14)
25. Windy Forest, Pt. V (02:40)
-Формат файла записи / Источник записи: [TR24][OF]
Формат файла: FLAC (*.flac)
Тип рипа: tracks
Разрядность: 24bit / 44kHz
Количество каналов: 2.0
Формат файла: PCM
-
-[url=tracker.php?pid=38812251] [/url]-

DR

foobar2000 1.3.7 / Замер динамического диапазона (DR) 1.1.1Дата отчёта: 2019-02-16 09:14:12
--------------------------------------------------------------------------------Анализ: Wonders Of Nature / Highland Echoes--------------------------------------------------------------------------------
DR Пики RMS Продолжительность трека--------------------------------------------------------------------------------DR13 -2.98 дБ -20.91 дБ 2:39 01-Ancient Tree, Pt. IDR12 -7.24 дБ -23.45 дБ 2:21 02-Ancient Tree, Pt. IIDR13 -7.40 дБ -24.15 дБ 2:06 03-Ancient Tree, Pt. IIIDR13 -4.49 дБ -21.92 дБ 3:22 04-Ancient Tree, Pt. IVDR15 -1.96 дБ -22.21 дБ 3:12 05-Ancient Tree, Pt. VDR14 -7.08 дБ -27.10 дБ 1:17 06-Dark Forest, Pt. IDR12 -5.57 дБ -21.20 дБ 2:24 07-Dark Forest, Pt. IIDR13 -1.25 дБ -19.84 дБ 1:55 08-Dark Forest, Pt. IIIDR14 -1.76 дБ -20.20 дБ 2:14 09-Dark Forest, Pt. IVDR12 -4.01 дБ -19.90 дБ 1:43 10-Dark Forest, Pt. VDR14 -4.83 дБ -22.65 дБ 4:03 11-Gentle Darkness, Pt. IDR13 -8.02 дБ -25.02 дБ 2:59 12-Gentle Darkness, Pt. IIDR13 -2.06 дБ -21.81 дБ 3:50 13-Gentle Darkness, Pt. IIIDR15 -2.43 дБ -22.68 дБ 3:12 14-Gentle Darkness, Pt. IVDR14 -5.24 дБ -24.72 дБ 3:09 15-Gentle Darkness, Pt. VDR14 -2.41 дБ -21.49 дБ 3:09 16-Trough The Mist, Pt. IDR12 -7.38 дБ -23.12 дБ 2:59 17-Trough The Mist, Pt. IIDR13 -2.83 дБ -22.14 дБ 3:10 18-Trough The Mist, Pt. IIIDR15 -3.10 дБ -23.32 дБ 3:01 19-Trough The Mist, Pt. IVDR14 -5.36 дБ -22.73 дБ 2:29 20-Trough The Mist, Pt. VDR13 -1.97 дБ -20.21 дБ 2:37 21-Windy Forest, Pt. IDR13 -1.13 дБ -19.72 дБ 2:16 22-Windy Forest, Pt. IIDR12 -2.52 дБ -20.36 дБ 1:47 23-Windy Forest, Pt. IIIDR15 -2.43 дБ -22.60 дБ 4:14 24-Windy Forest, Pt. IVDR14 -1.06 дБ -20.29 дБ 2:40 25-Windy Forest, Pt. V--------------------------------------------------------------------------------
Количество треков: 25Реальные значения DR: DR13
Частота: 44100 ГцКаналов: 2Разрядность: 24Битрейт: 1313 кбит/сКодек: FLAC================================================================================

MediaInfo

Общее
Полное имя : C:\Users\Тимофей\Desktop\Wonders Of Nature - Highland Echoes\03. Ancient Tree, Pt. III.flac
Формат файла : FLAC
Формат файла/Информация : Free Lossless Audio Codec
Размер файла : 20,9 Мбайт
Продолжительность : 2 м. 5 с.
Режим общего битрейта : Переменный
Общий поток : 1396 Кбит/сек
Альбом : Highland Echoes
Альбом/Исполнитель : Wonders Of Nature
Трек : Ancient Tree, Pt. III
Трек/Положение : 3
Исполнитель : Wonders Of Nature
Жанр : Ambient / Atmospheric
Дата записи : 2018
Обложка : Yes
Тип обложки : Cover (front)
MIME-тип обложки : image/png
Аудио
Формат файла : FLAC
Формат файла/Информация : Free Lossless Audio Codec
Продолжительность : 2 м. 5 с.
Вид битрейта : Переменный
Битрейт : 1355 Кбит/сек
Каналы : 2 канала
Расположение каналов : Front: L R
Частота : 44,1 КГц
Битовая глубина : 24 бит
Размер потока : 20,3 Мбайт (97%)
Библиотека кодирования : libFLAC 1.3.2 (UTC 2017-01-01)
Общее
Полное имя : C:\Users\Тимофей\Desktop\Wonders Of Nature - Highland Echoes\04. Ancient Tree, Pt. IV.flac
Формат файла : FLAC
Формат файла/Информация : Free Lossless Audio Codec
Размер файла : 32,1 Мбайт
Продолжительность : 3 м. 21 с.
Режим общего битрейта : Переменный
Общий поток : 1335 Кбит/сек
Альбом : Highland Echoes
Альбом/Исполнитель : Wonders Of Nature
Трек : Ancient Tree, Pt. IV
Трек/Положение : 4
Исполнитель : Wonders Of Nature
Жанр : Ambient / Atmospheric
Дата записи : 2018
Обложка : Yes
Тип обложки : Cover (front)
MIME-тип обложки : image/png
Аудио
Формат файла : FLAC
Формат файла/Информация : Free Lossless Audio Codec
Продолжительность : 3 м. 21 с.
Вид битрейта : Переменный
Битрейт : 1309 Кбит/сек
Каналы : 2 канала
Расположение каналов : Front: L R
Частота : 44,1 КГц
Битовая глубина : 24 бит
Размер потока : 31,5 Мбайт (98%)
Библиотека кодирования : libFLAC 1.3.2 (UTC 2017-01-01)
Общее
Полное имя : C:\Users\Тимофей\Desktop\Wonders Of Nature - Highland Echoes\05. Ancient Tree, Pt. V.flac
Формат файла : FLAC
Формат файла/Информация : Free Lossless Audio Codec
Размер файла : 29,6 Мбайт
Продолжительность : 3 м. 12 с.
Режим общего битрейта : Переменный
Общий поток : 1294 Кбит/сек
Альбом : Highland Echoes
Альбом/Исполнитель : Wonders Of Nature
Трек : Ancient Tree, Pt. V
Трек/Положение : 5
Исполнитель : Wonders Of Nature
Жанр : Ambient / Atmospheric
Дата записи : 2018
Обложка : Yes
Тип обложки : Cover (front)
MIME-тип обложки : image/png
Аудио
Формат файла : FLAC
Формат файла/Информация : Free Lossless Audio Codec
Продолжительность : 3 м. 12 с.
Вид битрейта : Переменный
Битрейт : 1267 Кбит/сек
Каналы : 2 канала
Расположение каналов : Front: L R
Частота : 44,1 КГц
Битовая глубина : 24 бит
Размер потока : 29,0 Мбайт (98%)
Библиотека кодирования : libFLAC 1.3.2 (UTC 2017-01-01)
Общее
Полное имя : C:\Users\Тимофей\Desktop\Wonders Of Nature - Highland Echoes\06. Dark Forest, Pt. I.flac
Формат файла : FLAC
Формат файла/Информация : Free Lossless Audio Codec
Размер файла : 12,8 Мбайт
Продолжительность : 1 м. 16 с.
Режим общего битрейта : Переменный
Общий поток : 1403 Кбит/сек
Альбом : Highland Echoes
Альбом/Исполнитель : Wonders Of Nature
Трек : Dark Forest, Pt. I
Трек/Положение : 6
Исполнитель : Wonders Of Nature
Жанр : Ambient / Atmospheric
Дата записи : 2018
Обложка : Yes
Тип обложки : Cover (front)
MIME-тип обложки : image/png
Аудио
Формат файла : FLAC
Формат файла/Информация : Free Lossless Audio Codec
Продолжительность : 1 м. 16 с.
Вид битрейта : Переменный
Битрейт : 1336 Кбит/сек
Каналы : 2 канала
Расположение каналов : Front: L R
Частота : 44,1 КГц
Битовая глубина : 24 бит
Размер потока : 12,2 Мбайт (95%)
Библиотека кодирования : libFLAC 1.3.2 (UTC 2017-01-01)
Общее
Полное имя : C:\Users\Тимофей\Desktop\Wonders Of Nature - Highland Echoes\07. Dark Forest, Pt. II.flac
Формат файла : FLAC
Формат файла/Информация : Free Lossless Audio Codec
Размер файла : 23,3 Мбайт
Продолжительность : 2 м. 24 с.
Режим общего битрейта : Переменный
Общий поток : 1359 Кбит/сек
Альбом : Highland Echoes
Альбом/Исполнитель : Wonders Of Nature
Трек : Dark Forest, Pt. II
Трек/Положение : 7
Исполнитель : Wonders Of Nature
Жанр : Ambient / Atmospheric
Дата записи : 2018
Обложка : Yes
Тип обложки : Cover (front)
MIME-тип обложки : image/png
Аудио
Формат файла : FLAC
Формат файла/Информация : Free Lossless Audio Codec
Продолжительность : 2 м. 24 с.
Вид битрейта : Переменный
Битрейт : 1323 Кбит/сек
Каналы : 2 канала
Расположение каналов : Front: L R
Частота : 44,1 КГц
Битовая глубина : 24 бит
Размер потока : 22,7 Мбайт (97%)
Библиотека кодирования : libFLAC 1.3.2 (UTC 2017-01-01)
Общее
Полное имя : C:\Users\Тимофей\Desktop\Wonders Of Nature - Highland Echoes\08. Dark Forest, Pt. III.flac
Формат файла : FLAC
Формат файла/Информация : Free Lossless Audio Codec
Размер файла : 19,6 Мбайт
Продолжительность : 1 м. 55 с.
Режим общего битрейта : Переменный
Общий поток : 1425 Кбит/сек
Альбом : Highland Echoes
Альбом/Исполнитель : Wonders Of Nature
Трек : Dark Forest, Pt. III
Трек/Положение : 8
Исполнитель : Wonders Of Nature
Жанр : Ambient / Atmospheric
Дата записи : 2018
Обложка : Yes
Тип обложки : Cover (front)
MIME-тип обложки : image/png
Аудио
Формат файла : FLAC
Формат файла/Информация : Free Lossless Audio Codec
Продолжительность : 1 м. 55 с.
Вид битрейта : Переменный
Битрейт : 1380 Кбит/сек
Каналы : 2 канала
Расположение каналов : Front: L R
Частота : 44,1 КГц
Битовая глубина : 24 бит
Размер потока : 19,0 Мбайт (97%)
Библиотека кодирования : libFLAC 1.3.2 (UTC 2017-01-01)
Общее
Полное имя : C:\Users\Тимофей\Desktop\Wonders Of Nature - Highland Echoes\09. Dark Forest, Pt. IV.flac
Формат файла : FLAC
Формат файла/Информация : Free Lossless Audio Codec
Размер файла : 21,9 Мбайт
Продолжительность : 2 м. 14 с.
Режим общего битрейта : Переменный
Общий поток : 1365 Кбит/сек
Альбом : Highland Echoes
Альбом/Исполнитель : Wonders Of Nature
Трек : Dark Forest, Pt. IV
Трек/Положение : 9
Исполнитель : Wonders Of Nature
Жанр : Ambient / Atmospheric
Дата записи : 2018
Обложка : Yes
Тип обложки : Cover (front)
MIME-тип обложки : image/png
Аудио
Формат файла : FLAC
Формат файла/Информация : Free Lossless Audio Codec
Продолжительность : 2 м. 14 с.
Вид битрейта : Переменный
Битрейт : 1326 Кбит/сек
Каналы : 2 канала
Расположение каналов : Front: L R
Частота : 44,1 КГц
Битовая глубина : 24 бит
Размер потока : 21,2 Мбайт (97%)
Библиотека кодирования : libFLAC 1.3.2 (UTC 2017-01-01)
Общее
Полное имя : C:\Users\Тимофей\Desktop\Wonders Of Nature - Highland Echoes\10. Dark Forest, Pt. V.flac
Формат файла : FLAC
Формат файла/Информация : Free Lossless Audio Codec
Размер файла : 17,6 Мбайт
Продолжительность : 1 м. 43 с.
Режим общего битрейта : Переменный
Общий поток : 1428 Кбит/сек
Альбом : Highland Echoes
Альбом/Исполнитель : Wonders Of Nature
Трек : Dark Forest, Pt. V
Трек/Положение : 10
Исполнитель : Wonders Of Nature
Жанр : Ambient / Atmospheric
Дата записи : 2018
Обложка : Yes
Тип обложки : Cover (front)
MIME-тип обложки : image/png
Аудио
Формат файла : FLAC
Формат файла/Информация : Free Lossless Audio Codec
Продолжительность : 1 м. 43 с.
Вид битрейта : Переменный
Битрейт : 1378 Кбит/сек
Каналы : 2 канала
Расположение каналов : Front: L R
Частота : 44,1 КГц
Битовая глубина : 24 бит
Размер потока : 17,0 Мбайт (96%)
Библиотека кодирования : libFLAC 1.3.2 (UTC 2017-01-01)
Общее
Полное имя : C:\Users\Тимофей\Desktop\Wonders Of Nature - Highland Echoes\11. Gentle Darkness, Pt. I.flac
Формат файла : FLAC
Формат файла/Информация : Free Lossless Audio Codec
Размер файла : 39,7 Мбайт
Продолжительность : 4 м. 3 с.
Режим общего битрейта : Переменный
Общий поток : 1368 Кбит/сек
Альбом : Highland Echoes
Альбом/Исполнитель : Wonders Of Nature
Трек : Gentle Darkness, Pt. I
Трек/Положение : 11
Исполнитель : Wonders Of Nature
Жанр : Ambient / Atmospheric
Дата записи : 2018
Обложка : Yes
Тип обложки : Cover (front)
MIME-тип обложки : image/png
Аудио
Формат файла : FLAC
Формат файла/Информация : Free Lossless Audio Codec
Продолжительность : 4 м. 3 с.
Вид битрейта : Переменный
Битрейт : 1347 Кбит/сек
Каналы : 2 канала
Расположение каналов : Front: L R
Частота : 44,1 КГц
Битовая глубина : 24 бит
Размер потока : 39,1 Мбайт (98%)
Библиотека кодирования : libFLAC 1.3.2 (UTC 2017-01-01)
Общее
Полное имя : C:\Users\Тимофей\Desktop\Wonders Of Nature - Highland Echoes\12. Gentle Darkness, Pt. II.flac
Формат файла : FLAC
Формат файла/Информация : Free Lossless Audio Codec
Размер файла : 27,2 Мбайт
Продолжительность : 2 м. 59 с.
Режим общего битрейта : Переменный
Общий поток : 1273 Кбит/сек
Альбом : Highland Echoes
Альбом/Исполнитель : Wonders Of Nature
Трек : Gentle Darkness, Pt. II
Трек/Положение : 12
Исполнитель : Wonders Of Nature
Жанр : Ambient / Atmospheric
Дата записи : 2018
Обложка : Yes
Тип обложки : Cover (front)
MIME-тип обложки : image/png
Аудио
Формат файла : FLAC
Формат файла/Информация : Free Lossless Audio Codec
Продолжительность : 2 м. 59 с.
Вид битрейта : Переменный
Битрейт : 1244 Кбит/сек
Каналы : 2 канала
Расположение каналов : Front: L R
Частота : 44,1 КГц
Битовая глубина : 24 бит
Размер потока : 26,6 Мбайт (98%)
Библиотека кодирования : libFLAC 1.3.2 (UTC 2017-01-01)
Общее
Полное имя : C:\Users\Тимофей\Desktop\Wonders Of Nature - Highland Echoes\13. Gentle Darkness, Pt. III.flac
Формат файла : FLAC
Формат файла/Информация : Free Lossless Audio Codec
Размер файла : 36,5 Мбайт
Продолжительность : 3 м. 50 с.
Режим общего битрейта : Переменный
Общий поток : 1327 Кбит/сек
Альбом : Highland Echoes
Альбом/Исполнитель : Wonders Of Nature
Трек : Gentle Darkness, Pt. III
Трек/Положение : 13
Исполнитель : Wonders Of Nature
Жанр : Ambient / Atmospheric
Дата записи : 2018
Обложка : Yes
Тип обложки : Cover (front)
MIME-тип обложки : image/png
Аудио
Формат файла : FLAC
Формат файла/Информация : Free Lossless Audio Codec
Продолжительность : 3 м. 50 с.
Вид битрейта : Переменный
Битрейт : 1305 Кбит/сек
Каналы : 2 канала
Расположение каналов : Front: L R
Частота : 44,1 КГц
Битовая глубина : 24 бит
Размер потока : 35,8 Мбайт (98%)
Библиотека кодирования : libFLAC 1.3.2 (UTC 2017-01-01)
Общее
Полное имя : C:\Users\Тимофей\Desktop\Wonders Of Nature - Highland Echoes\14. Gentle Darkness, Pt. IV.flac
Формат файла : FLAC
Формат файла/Информация : Free Lossless Audio Codec
Размер файла : 29,6 Мбайт
Продолжительность : 3 м. 12 с.
Режим общего битрейта : Переменный
Общий поток : 1291 Кбит/сек
Альбом : Highland Echoes
Альбом/Исполнитель : Wonders Of Nature
Трек : Gentle Darkness, Pt. IV
Трек/Положение : 14
Исполнитель : Wonders Of Nature
Жанр : Ambient / Atmospheric
Дата записи : 2018
Обложка : Yes
Тип обложки : Cover (front)
MIME-тип обложки : image/png
Аудио
Формат файла : FLAC
Формат файла/Информация : Free Lossless Audio Codec
Продолжительность : 3 м. 12 с.
Вид битрейта : Переменный
Битрейт : 1264 Кбит/сек
Каналы : 2 канала
Расположение каналов : Front: L R
Частота : 44,1 КГц
Битовая глубина : 24 бит
Размер потока : 28,9 Мбайт (98%)
Библиотека кодирования : libFLAC 1.3.2 (UTC 2017-01-01)
Общее
Полное имя : C:\Users\Тимофей\Desktop\Wonders Of Nature - Highland Echoes\15. Gentle Darkness, Pt. V.flac
Формат файла : FLAC
Формат файла/Информация : Free Lossless Audio Codec
Размер файла : 29,4 Мбайт
Продолжительность : 3 м. 9 с.
Режим общего битрейта : Переменный
Общий поток : 1302 Кбит/сек
Альбом : Highland Echoes
Альбом/Исполнитель : Wonders Of Nature
Трек : Gentle Darkness, Pt. V
Трек/Положение : 15
Исполнитель : Wonders Of Nature
Жанр : Ambient / Atmospheric
Дата записи : 2018
Обложка : Yes
Тип обложки : Cover (front)
MIME-тип обложки : image/png
Аудио
Формат файла : FLAC
Формат файла/Информация : Free Lossless Audio Codec
Продолжительность : 3 м. 9 с.
Вид битрейта : Переменный
Битрейт : 1275 Кбит/сек
Каналы : 2 канала
Расположение каналов : Front: L R
Частота : 44,1 КГц
Битовая глубина : 24 бит
Размер потока : 28,8 Мбайт (98%)
Библиотека кодирования : libFLAC 1.3.2 (UTC 2017-01-01)
Общее
Полное имя : C:\Users\Тимофей\Desktop\Wonders Of Nature - Highland Echoes\16. Trough The Mist, Pt. I.flac
Формат файла : FLAC
Формат файла/Информация : Free Lossless Audio Codec
Размер файла : 30,6 Мбайт
Продолжительность : 3 м. 9 с.
Режим общего битрейта : Переменный
Общий поток : 1355 Кбит/сек
Альбом : Highland Echoes
Альбом/Исполнитель : Wonders Of Nature
Трек : Trough The Mist, Pt. I
Трек/Положение : 16
Исполнитель : Wonders Of Nature
Жанр : Ambient / Atmospheric
Дата записи : 2018
Обложка : Yes
Тип обложки : Cover (front)
MIME-тип обложки : image/png
Аудио
Формат файла : FLAC
Формат файла/Информация : Free Lossless Audio Codec
Продолжительность : 3 м. 9 с.
Вид битрейта : Переменный
Битрейт : 1327 Кбит/сек
Каналы : 2 канала
Расположение каналов : Front: L R
Частота : 44,1 КГц
Битовая глубина : 24 бит
Размер потока : 30,0 Мбайт (98%)
Библиотека кодирования : libFLAC 1.3.2 (UTC 2017-01-01)
Общее
Полное имя : C:\Users\Тимофей\Desktop\Wonders Of Nature - Highland Echoes\17. Trough The Mist, Pt. II.flac
Формат файла : FLAC
Формат файла/Информация : Free Lossless Audio Codec
Размер файла : 28,0 Мбайт
Продолжительность : 2 м. 59 с.
Режим общего битрейта : Переменный
Общий поток : 1309 Кбит/сек
Альбом : Highland Echoes
Альбом/Исполнитель : Wonders Of Nature
Трек : Trough The Mist, Pt. II
Трек/Положение : 17
Исполнитель : Wonders Of Nature
Жанр : Ambient / Atmospheric
Дата записи : 2018
Обложка : Yes
Тип обложки : Cover (front)
MIME-тип обложки : image/png
Аудио
Формат файла : FLAC
Формат файла/Информация : Free Lossless Audio Codec
Продолжительность : 2 м. 59 с.
Вид битрейта : Переменный
Битрейт : 1280 Кбит/сек
Каналы : 2 канала
Расположение каналов : Front: L R
Частота : 44,1 КГц
Битовая глубина : 24 бит
Размер потока : 27,3 Мбайт (98%)
Библиотека кодирования : libFLAC 1.3.2 (UTC 2017-01-01)
Общее
Полное имя : C:\Users\Тимофей\Desktop\Wonders Of Nature - Highland Echoes\18. Trough The Mist, Pt. III.flac
Формат файла : FLAC
Формат файла/Информация : Free Lossless Audio Codec
Размер файла : 29,6 Мбайт
Продолжительность : 3 м. 9 с.
Режим общего битрейта : Переменный
Общий поток : 1309 Кбит/сек
Альбом : Highland Echoes
Альбом/Исполнитель : Wonders Of Nature
Трек : Trough The Mist, Pt. III
Трек/Положение : 18
Исполнитель : Wonders Of Nature
Жанр : Ambient / Atmospheric
Дата записи : 2018
Обложка : Yes
Тип обложки : Cover (front)
MIME-тип обложки : image/png
Аудио
Формат файла : FLAC
Формат файла/Информация : Free Lossless Audio Codec
Продолжительность : 3 м. 9 с.
Вид битрейта : Переменный
Битрейт : 1281 Кбит/сек
Каналы : 2 канала
Расположение каналов : Front: L R
Частота : 44,1 КГц
Битовая глубина : 24 бит
Размер потока : 29,0 Мбайт (98%)
Библиотека кодирования : libFLAC 1.3.2 (UTC 2017-01-01)
Общее
Полное имя : C:\Users\Тимофей\Desktop\Wonders Of Nature - Highland Echoes\19. Trough The Mist, Pt. IV.flac
Формат файла : FLAC
Формат файла/Информация : Free Lossless Audio Codec
Размер файла : 28,5 Мбайт
Продолжительность : 3 м. 1 с.
Режим общего битрейта : Переменный
Общий поток : 1319 Кбит/сек
Альбом : Highland Echoes
Альбом/Исполнитель : Wonders Of Nature
Трек : Trough The Mist, Pt. IV
Трек/Положение : 19
Исполнитель : Wonders Of Nature
Жанр : Ambient / Atmospheric
Дата записи : 2018
Обложка : Yes
Тип обложки : Cover (front)
MIME-тип обложки : image/png
Аудио
Формат файла : FLAC
Формат файла/Информация : Free Lossless Audio Codec
Продолжительность : 3 м. 1 с.
Вид битрейта : Переменный
Битрейт : 1291 Кбит/сек
Каналы : 2 канала
Расположение каналов : Front: L R
Частота : 44,1 КГц
Битовая глубина : 24 бит
Размер потока : 27,9 Мбайт (98%)
Библиотека кодирования : libFLAC 1.3.2 (UTC 2017-01-01)
Общее
Полное имя : C:\Users\Тимофей\Desktop\Wonders Of Nature - Highland Echoes\20. Trough The Mist, Pt. V.flac
Формат файла : FLAC
Формат файла/Информация : Free Lossless Audio Codec
Размер файла : 24,8 Мбайт
Продолжительность : 2 м. 29 с.
Режим общего битрейта : Переменный
Общий поток : 1391 Кбит/сек
Альбом : Highland Echoes
Альбом/Исполнитель : Wonders Of Nature
Трек : Trough The Mist, Pt. V
Трек/Положение : 20
Исполнитель : Wonders Of Nature
Жанр : Ambient / Atmospheric
Дата записи : 2018
Обложка : Yes
Тип обложки : Cover (front)
MIME-тип обложки : image/png
Аудио
Формат файла : FLAC
Формат файла/Информация : Free Lossless Audio Codec
Продолжительность : 2 м. 29 с.
Вид битрейта : Переменный
Битрейт : 1356 Кбит/сек
Каналы : 2 канала
Расположение каналов : Front: L R
Частота : 44,1 КГц
Битовая глубина : 24 бит
Размер потока : 24,1 Мбайт (98%)
Библиотека кодирования : libFLAC 1.3.2 (UTC 2017-01-01)
Общее
Полное имя : C:\Users\Тимофей\Desktop\Wonders Of Nature - Highland Echoes\21. Windy Forest, Pt. I.flac
Формат файла : FLAC
Формат файла/Информация : Free Lossless Audio Codec
Размер файла : 24,6 Мбайт
Продолжительность : 2 м. 37 с.
Режим общего битрейта : Переменный
Общий поток : 1310 Кбит/сек
Альбом : Highland Echoes
Альбом/Исполнитель : Wonders Of Nature
Трек : Windy Forest, Pt. I
Трек/Положение : 21
Исполнитель : Wonders Of Nature
Жанр : Ambient / Atmospheric
Дата записи : 2018
Обложка : Yes
Тип обложки : Cover (front)
MIME-тип обложки : image/png
Аудио
Формат файла : FLAC
Формат файла/Информация : Free Lossless Audio Codec
Продолжительность : 2 м. 37 с.
Вид битрейта : Переменный
Битрейт : 1277 Кбит/сек
Каналы : 2 канала
Расположение каналов : Front: L R
Частота : 44,1 КГц
Битовая глубина : 24 бит
Размер потока : 23,9 Мбайт (97%)
Библиотека кодирования : libFLAC 1.3.2 (UTC 2017-01-01)
Общее
Полное имя : C:\Users\Тимофей\Desktop\Wonders Of Nature - Highland Echoes\22. Windy Forest, Pt. II.flac
Формат файла : FLAC
Формат файла/Информация : Free Lossless Audio Codec
Размер файла : 22,0 Мбайт
Продолжительность : 2 м. 16 с.
Режим общего битрейта : Переменный
Общий поток : 1353 Кбит/сек
Альбом : Highland Echoes
Альбом/Исполнитель : Wonders Of Nature
Трек : Windy Forest, Pt. II
Трек/Положение : 22
Исполнитель : Wonders Of Nature
Жанр : Ambient / Atmospheric
Дата записи : 2018
Обложка : Yes
Тип обложки : Cover (front)
MIME-тип обложки : image/png
Аудио
Формат файла : FLAC
Формат файла/Информация : Free Lossless Audio Codec
Продолжительность : 2 м. 16 с.
Вид битрейта : Переменный
Битрейт : 1315 Кбит/сек
Каналы : 2 канала
Расположение каналов : Front: L R
Частота : 44,1 КГц
Битовая глубина : 24 бит
Размер потока : 21,3 Мбайт (97%)
Библиотека кодирования : libFLAC 1.3.2 (UTC 2017-01-01)
Общее
Полное имя : C:\Users\Тимофей\Desktop\Wonders Of Nature - Highland Echoes\23. Windy Forest, Pt. III.flac
Формат файла : FLAC
Формат файла/Информация : Free Lossless Audio Codec
Размер файла : 17,4 Мбайт
Продолжительность : 1 м. 46 с.
Режим общего битрейта : Переменный
Общий поток : 1368 Кбит/сек
Альбом : Highland Echoes
Альбом/Исполнитель : Wonders Of Nature
Трек : Windy Forest, Pt. III
Трек/Положение : 23
Исполнитель : Wonders Of Nature
Жанр : Ambient / Atmospheric
Дата записи : 2018
Обложка : Yes
Тип обложки : Cover (front)
MIME-тип обложки : image/png
Аудио
Формат файла : FLAC
Формат файла/Информация : Free Lossless Audio Codec
Продолжительность : 1 м. 46 с.
Вид битрейта : Переменный
Битрейт : 1319 Кбит/сек
Каналы : 2 канала
Расположение каналов : Front: L R
Частота : 44,1 КГц
Битовая глубина : 24 бит
Размер потока : 16,8 Мбайт (96%)
Библиотека кодирования : libFLAC 1.3.2 (UTC 2017-01-01)
Общее
Полное имя : C:\Users\Тимофей\Desktop\Wonders Of Nature - Highland Echoes\24. Windy Forest, Pt. IV.flac
Формат файла : FLAC
Формат файла/Информация : Free Lossless Audio Codec
Размер файла : 40,0 Мбайт
Продолжительность : 4 м. 13 с.
Режим общего битрейта : Переменный
Общий поток : 1322 Кбит/сек
Альбом : Highland Echoes
Альбом/Исполнитель : Wonders Of Nature
Трек : Windy Forest, Pt. IV
Трек/Положение : 24
Исполнитель : Wonders Of Nature
Жанр : Ambient / Atmospheric
Дата записи : 2018
Обложка : Yes
Тип обложки : Cover (front)
MIME-тип обложки : image/png
Аудио
Формат файла : FLAC
Формат файла/Информация : Free Lossless Audio Codec
Продолжительность : 4 м. 13 с.
Вид битрейта : Переменный
Битрейт : 1302 Кбит/сек
Каналы : 2 канала
Расположение каналов : Front: L R
Частота : 44,1 КГц
Битовая глубина : 24 бит
Размер потока : 39,4 Мбайт (98%)
Библиотека кодирования : libFLAC 1.3.2 (UTC 2017-01-01)
Общее
Полное имя : C:\Users\Тимофей\Desktop\Wonders Of Nature - Highland Echoes\25. Windy Forest, Pt. V.flac
Формат файла : FLAC
Формат файла/Информация : Free Lossless Audio Codec
Размер файла : 25,7 Мбайт
Продолжительность : 2 м. 40 с.
Режим общего битрейта : Переменный
Общий поток : 1345 Кбит/сек
Альбом : Highland Echoes
Альбом/Исполнитель : Wonders Of Nature
Трек : Windy Forest, Pt. V
Трек/Положение : 25
Исполнитель : Wonders Of Nature
Жанр : Ambient / Atmospheric
Дата записи : 2018
Обложка : Yes
Тип обложки : Cover (front)
MIME-тип обложки : image/png
Аудио
Формат файла : FLAC
Формат файла/Информация : Free Lossless Audio Codec
Продолжительность : 2 м. 40 с.
Вид битрейта : Переменный
Битрейт : 1313 Кбит/сек
Каналы : 2 канала
Расположение каналов : Front: L R
Частота : 44,1 КГц
Битовая глубина : 24 бит
Размер потока : 25,0 Мбайт (98%)
Библиотека кодирования : libFLAC 1.3.2 (UTC 2017-01-01)
Общее
Полное имя : C:\Users\Тимофей\Desktop\Wonders Of Nature - Highland Echoes\01. Ancient Tree, Pt. I.flac
Формат файла : FLAC
Формат файла/Информация : Free Lossless Audio Codec
Размер файла : 25,8 Мбайт
Продолжительность : 2 м. 39 с.
Режим общего битрейта : Переменный
Общий поток : 1355 Кбит/сек
Альбом : Highland Echoes
Альбом/Исполнитель : Wonders Of Nature
Трек : Ancient Tree, Pt. I
Трек/Положение : 1
Исполнитель : Wonders Of Nature
Жанр : Ambient / Atmospheric
Дата записи : 2018
Обложка : Yes
Тип обложки : Cover (front)
MIME-тип обложки : image/png
Аудио
Формат файла : FLAC
Формат файла/Информация : Free Lossless Audio Codec
Продолжительность : 2 м. 39 с.
Вид битрейта : Переменный
Битрейт : 1323 Кбит/сек
Каналы : 2 канала
Расположение каналов : Front: L R
Частота : 44,1 КГц
Битовая глубина : 24 бит
Размер потока : 25,1 Мбайт (98%)
Библиотека кодирования : libFLAC 1.3.2 (UTC 2017-01-01)
Общее
Полное имя : C:\Users\Тимофей\Desktop\Wonders Of Nature - Highland Echoes\02. Ancient Tree, Pt. II.flac
Формат файла : FLAC
Формат файла/Информация : Free Lossless Audio Codec
Размер файла : 21,6 Мбайт
Продолжительность : 2 м. 20 с.
Режим общего битрейта : Переменный
Общий поток : 1288 Кбит/сек
Альбом : Highland Echoes
Альбом/Исполнитель : Wonders Of Nature
Трек : Ancient Tree, Pt. II
Трек/Положение : 2
Исполнитель : Wonders Of Nature
Жанр : Ambient / Atmospheric
Дата записи : 2018
Обложка : Yes
Тип обложки : Cover (front)
MIME-тип обложки : image/png
Аудио
Формат файла : FLAC
Формат файла/Информация : Free Lossless Audio Codec
Продолжительность : 2 м. 20 с.
Вид битрейта : Переменный
Битрейт : 1251 Кбит/сек
Каналы : 2 канала
Расположение каналов : Front: L R
Частота : 44,1 КГц
Битовая глубина : 24 бит
Размер потока : 21,0 Мбайт (97%)
Библиотека кодирования : libFLAC 1.3.2 (UTC 2017-01-01)

Мои раздачи с альбомами WONDERS OF NATURE

Wonders Of Nature / Kola Peninsula I (2019) [TR24][OF] (24bit / 44kHz)
Wonders Of Nature / Kola Peninsula I (2019) [MP3] (320 kbps)
Wonders Of Nature / Winter Forest (Bonus Edition) (2018) [MP3] (320 kbps)
Wonders Of Nature / Symphony Of Winds (Single / Demo) (2017) [MP3] (320 kbps)
Wonders Of Nature / Winter Forest / Legenda Revontulet (Deluxe Edition) (2017) [Lossless] (FLAC (*.flac))
Wonders Of Nature / Glow Over The Forest (EP) (2016) [TR24][OF] (24bit / 44kHz)
Wonders Of Nature / Winter Forest (2016) [TR24][OF] (24bit / 44kHz)
Wonders Of Nature / Legenda Revontulet (2016) [TR24][OF] (24bit / 44kHz)
Wonders Of Nature / Legenda Revontulet (2016) [Lossless] (FLAC (*.flac))
Wonders Of Nature / Passion For Nature (2015) [Lossless] (FLAC (*.flac))
Wonders Of Nature / Official Discography (17 CD) (2015 - 2016) [MP3] (320 kbps)


[torrentc.info]_t_5690478.torrent
Торрент: Зарегистрирован ·  [ 2019-02-17 02:37 ] ·  1ca99a823862da2b375b90096e03cb03c03f1fa5

15 KB

Статус: проверено
Скачан: 0 раз
Размер: 669 MB
Оценка: 
(Голосов: 0)
Сказали спасибо: 0  Спасибо
Похожие темы
[Профиль]    [ЛС]
Показать сообщения:    
Ответить на тему

Текущее время: Сегодня 14:58

Часовой пояс: GMT + 7



Вы не можете начинать темы
Вы не можете отвечать на сообщения
Вы не можете редактировать свои сообщения
Вы не можете удалять свои сообщения
Вы не можете голосовать в опросах
Вы не можете прикреплять файлы к сообщениям
Вы можете скачивать файлы