[TR24][OF] Wonders Of Nature - Glow Over The Forest (EP) - 2016 (Ambient / Atmospheric Black / Instrumental)

Ответить на тему
Статистика раздачи [Обновить пиров]
Размер:  456 MB   |    Зарегистрирован:  1 месяц 8 дней   |    Скачан:  0 раз

Полного источника не было: Никогда

 
   
 
 
 
Автор Сообщение

Mak

Создавать темы 17-Фев-2019 02:37

[Цитировать]

Wonders Of Nature / Glow Over The Forest (EP)- Дата релиза: July 31, 2016
Жанр: Ambient / Atmospheric Black / Instrumental
Страна исполнителя (группы): Russia, Murmansk, Nikel
Продолжительность: 00:37:34
Наличие сканов: нет
-Источник (релизер): Bandcamp-
1. Glow Over The Forest (04:43)
2. Her Ghost Haunts These Walls (Nocturnal Depression Cover) [Demo] (09:50)
3. Nocturnal Poisoning (Xasthur Cover) [Demo] (17:29)
4. The Valley Of Sadness (Fear Of Eternity Cover) [Demo] (05:32)-Формат файла записи / Источник записи: [TR24][OF]
Формат файла: FLAC (*.flac)
Тип рипа: tracks
Разрядность: 24bit / 44kHz
Количество каналов: 2.0
Формат файла: PCM
-
-[url=tracker.php?pid=38812251] [/url]-

DR

foobar2000 1.3.7 / Замер динамического диапазона (DR) 1.1.1Дата отчёта: 2019-02-16 05:47:15
--------------------------------------------------------------------------------Анализ: Wonders Of Nature / Glow Over The Forest (EP)--------------------------------------------------------------------------------
DR Пики RMS Продолжительность трека--------------------------------------------------------------------------------DR13 -1.44 дБ -18.33 дБ 4:43 01-Glow Over The ForestDR8 0.00 дБ -10.66 дБ 9:50 02-Her Ghost Haunts These Walls (Nocturnal Depression Cover) [Demo]DR7 0.00 дБ -10.18 дБ 17:29 03-Nocturnal Poisoning (Xasthur Cover) [Demo]DR8 0.00 дБ -9.62 дБ 5:32 04-The Valley Of Sadness (Fear Of Eternity Cover) [Demo]--------------------------------------------------------------------------------
Количество треков: 4Реальные значения DR: DR9
Частота: 44100 ГцКаналов: 2Разрядность: 24Битрейт: 1805 кбит/сКодек: FLAC================================================================================

MediaInfo

Общее
Полное имя : C:\Users\Тимофей\Desktop\Wonders Of Nature - Glow Over The Forest (EP)\03. Nocturnal Poisoning (Xasthur Cover) [Demo].flac
Формат файла : FLAC
Формат файла/Информация : Free Lossless Audio Codec
Размер файла : 208 Мбайт
Продолжительность : 17 м. 29 с.
Режим общего битрейта : Переменный
Общий поток : 1661 Кбит/сек
Альбом : Glow Over The Forest (EP)
Альбом/Исполнитель : Wonders Of Nature
Трек : Nocturnal Poisoning (Xasthur Cover) [Demo]
Трек/Положение : 3
Исполнитель : Wonders Of Nature
Жанр : Ambient / Atmospheric Black / Instrumental
Дата записи : 2016
Обложка : Yes
Тип обложки : Cover (front)
MIME-тип обложки : image/jpeg
Аудио
Формат файла : FLAC
Формат файла/Информация : Free Lossless Audio Codec
Продолжительность : 17 м. 29 с.
Вид битрейта : Переменный
Битрейт : 1659 Кбит/сек
Каналы : 2 канала
Расположение каналов : Front: L R
Частота : 44,1 КГц
Битовая глубина : 24 бит
Размер потока : 208 Мбайт (100%)
Библиотека кодирования : libFLAC 1.3.2 (UTC 2017-01-01)
Общее
Полное имя : C:\Users\Тимофей\Desktop\Wonders Of Nature - Glow Over The Forest (EP)\04. The Valley Of Sadness (Fear Of Eternity Cover) [Demo].flac
Формат файла : FLAC
Формат файла/Информация : Free Lossless Audio Codec
Размер файла : 71,5 Мбайт
Продолжительность : 5 м. 31 с.
Режим общего битрейта : Переменный
Общий поток : 1809 Кбит/сек
Альбом : Glow Over The Forest (EP)
Альбом/Исполнитель : Wonders Of Nature
Трек : The Valley Of Sadness (Fear Of Eternity Cover) [Demo]
Трек/Положение : 4
Исполнитель : Wonders Of Nature
Жанр : Ambient / Atmospheric Black / Instrumental
Дата записи : 2016
Обложка : Yes
Тип обложки : Cover (front)
MIME-тип обложки : image/jpeg
Аудио
Формат файла : FLAC
Формат файла/Информация : Free Lossless Audio Codec
Продолжительность : 5 м. 31 с.
Вид битрейта : Переменный
Битрейт : 1805 Кбит/сек
Каналы : 2 канала
Расположение каналов : Front: L R
Частота : 44,1 КГц
Битовая глубина : 24 бит
Размер потока : 71,3 Мбайт (100%)
Библиотека кодирования : libFLAC 1.3.2 (UTC 2017-01-01)
Общее
Полное имя : C:\Users\Тимофей\Desktop\Wonders Of Nature - Glow Over The Forest (EP)\01. Glow Over The Forest.flac
Формат файла : FLAC
Формат файла/Информация : Free Lossless Audio Codec
Размер файла : 47,3 Мбайт
Продолжительность : 4 м. 43 с.
Режим общего битрейта : Переменный
Общий поток : 1401 Кбит/сек
Альбом : Glow Over The Forest (EP)
Альбом/Исполнитель : Wonders Of Nature
Трек : Glow Over The Forest
Трек/Положение : 1
Исполнитель : Wonders Of Nature
Жанр : Ambient / Atmospheric Black / Instrumental
Дата записи : 2013
Обложка : Yes
Тип обложки : Cover (front)
MIME-тип обложки : image/jpeg
Аудио
Формат файла : FLAC
Формат файла/Информация : Free Lossless Audio Codec
Продолжительность : 4 м. 43 с.
Вид битрейта : Переменный
Битрейт : 1396 Кбит/сек
Каналы : 2 канала
Расположение каналов : Front: L R
Частота : 44,1 КГц
Битовая глубина : 24 бит
Размер потока : 47,2 Мбайт (100%)
Библиотека кодирования : libFLAC 1.3.2 (UTC 2017-01-01)
Общее
Полное имя : C:\Users\Тимофей\Desktop\Wonders Of Nature - Glow Over The Forest (EP)\02. Her Ghost Haunts These Walls (Nocturnal Depression Cover) [Demo].flac
Формат файла : FLAC
Формат файла/Информация : Free Lossless Audio Codec
Размер файла : 124 Мбайт
Продолжительность : 9 м. 50 с.
Режим общего битрейта : Переменный
Общий поток : 1766 Кбит/сек
Альбом : Glow Over The Forest (EP)
Альбом/Исполнитель : Wonders Of Nature
Трек : Her Ghost Haunts These Walls (Nocturnal Depression Cover) [Demo]
Трек/Положение : 2
Исполнитель : Wonders Of Nature
Жанр : Ambient / Atmospheric Black / Instrumental
Дата записи : 2016
Обложка : Yes
Тип обложки : Cover (front)
MIME-тип обложки : image/jpeg
Аудио
Формат файла : FLAC
Формат файла/Информация : Free Lossless Audio Codec
Продолжительность : 9 м. 50 с.
Вид битрейта : Переменный
Битрейт : 1764 Кбит/сек
Каналы : 2 канала
Расположение каналов : Front: L R
Частота : 44,1 КГц
Битовая глубина : 24 бит
Размер потока : 124 Мбайт (100%)
Библиотека кодирования : libFLAC 1.3.2 (UTC 2017-01-01)

Мои раздачи с альбомами WONDERS OF NATURE

Wonders Of Nature / Kola Peninsula I (2019) [TR24][OF] (24bit / 44kHz)
Wonders Of Nature / Kola Peninsula I (2019) [MP3] (320 kbps)
Wonders Of Nature / Highland Echoes (2018) [TR24][OF] (24bit / 44kHz)
Wonders Of Nature / Winter Forest (Bonus Edition) (2018) [MP3] (320 kbps)
Wonders Of Nature / Symphony Of Winds (Single / Demo) (2017) [MP3] (320 kbps)
Wonders Of Nature / Winter Forest / Legenda Revontulet (Deluxe Edition) (2017) [Lossless] (FLAC (*.flac))
Wonders Of Nature / Winter Forest (2016) [TR24][OF] (24bit / 44kHz)
Wonders Of Nature / Legenda Revontulet (2016) [TR24][OF] (24bit / 44kHz)
Wonders Of Nature / Legenda Revontulet (2016) [Lossless] (FLAC (*.flac))
Wonders Of Nature / Passion For Nature (2015) [Lossless] (FLAC (*.flac))
Wonders Of Nature / Official Discography (17 CD) (2015 - 2016) [MP3] (320 kbps)


[torrentc.info]_t_5456086.torrent
Торрент: Зарегистрирован ·  [ 2019-02-17 02:37 ] ·  551530c135ee40de2c1b6b7ea1ca86eb8ed78958

19 KB

Статус: проверено
Скачан: 0 раз
Размер: 456 MB
Оценка: 
(Голосов: 0)
Сказали спасибо: 0  Спасибо
Похожие темы
[Профиль]    [ЛС]
Показать сообщения:    
Ответить на тему

Текущее время: Сегодня 15:05

Часовой пояс: GMT + 7



Вы не можете начинать темы
Вы не можете отвечать на сообщения
Вы не можете редактировать свои сообщения
Вы не можете удалять свои сообщения
Вы не можете голосовать в опросах
Вы не можете прикреплять файлы к сообщениям
Вы можете скачивать файлы