(Pumping House, Progressive House, Hard Bass, Speed Garage) [CD & WEB] Label: Jutonish (198 releases) - 2002-2017, FLAC (image+.cue / tracks), lossless

Ответить на тему
Статистика раздачи [Обновить пиров]
Размер:  86.96 GB   |    Зарегистрирован:  1 месяц 8 дней   |    Скачан:  0 раз

Полного источника не было: Никогда

 
   
 
 
 
Автор Сообщение

Кейт

Создавать темы 16-Фев-2019 17:16

[Цитировать]


Жанр: Pumping House, Progressive House, Hard Bass, Speed Garage
Годы выпуска дисков: 2002-2017
Производитель дисков: Россия
Аудио кодек: FLAC
Тип рипа: image+.cue / tracks
Битрейт аудио: lossless
Источник рипов: Собственные рипы & Johnkmv & what.cd (web)
Наличие сканов в содержимом раздачи: Да
Продолжительность: 08:02:48:27
Изменения\дополнения произошли со следующими релизами 16.02.2019:
[JHP04-030] - 2004 - DJ Slider - Progressive Trance Session
[JHP04-037] - 2004 - DJ Ance - Trance Dance
[JHP05-23] - 2005 - DJ Столяр - Столярка
[JHP06-32] - 2006 - Silent Hunter - Party People

[# none] - 2002 - VA - Jutonish Progressive House Vol 0

Жанр: Progressive House, Pumping House
Продолжительность: 01:18:59
Треклист:
01. Club Robbers - Search For The Bak Pitcters (4:50)
02. Stars 99 - Feel It (4:50)
03. Club Sukkas - Discosteppers (Club mix) (5:01)
04. Chaah - The Funkiness Of You (5:01)
05. Alex Coazad - Heart Beat (2:51)
06. King Size DJ Team - Go Ahead London (1:29)
07. The DJ - Dee Jay (5:30)
08. De Vize - Activate You Energy (3:31)
09. Lathhouse - Riga Style (Remix) (4:58)
10. Kadok - Clup You Hands (2:24)
11. Womina Wells - Get Up, Get Your Shit's Get Out (3:03)
12. Lock And load - Bcow Da Weekend (6:46)
13. Nick Skitz - Head Cheek (2:47)
14. The Ultimate Seduction - Get Down And Party (2:28)
15. NR GIZE - Im Ready To Go (5:14)
16. JKB - Ibiza (2:43)
17. Track 17 (5:47)
18. Track 18 (5:04)
19. Track 19 (4:42)

Лог создания рипа

Exact Audio Copy V1.0 beta 3 from 29. August 2011
EAC extraction logfile from 27. January 2013, 18:24
Various / Jutonish Progressive House Vol 0
Used drive : MATSHITADVD-R UJ-8A8 Adapter: 1 ID: 0
Read mode : SecureUtilize accurate stream : YesDefeat audio cache : YesMake use of C2 pointers : No
Read offset correction : 102Overread into Lead-In and Lead-Out : NoFill up missing offset samples with silence : YesDelete leading and trailing silent blocks : NoNull samples used in CRC calculations : YesUsed interface : Native Win32 interface for Win NT & 2000
Used output format : User Defined EncoderSelected bitrate : 768 kBit/sQuality : HighAdd ID3 tag : NoCommand line compressor : C:\Program Files (x86)\Exact Audio Copy\FLAC\FLAC.EXEAdditional command line options : -V -8 -T "Genre=%genre%" -T "Artist=%artist%" -T "Title=%title%" -T "Album=%albumtitle%" -T "Date=%year%" -T "Tracknumber=%tracknr%" -T "Comment=%comment%" %source%
TOC of the extracted CD
Track | Start | Length | Start sector | End sector --------------------------------------------------------- 1 | 0:00.00 | 4:50.10 | 0 | 21759 2 | 4:50.10 | 4:50.00 | 21760 | 43509 3 | 9:40.10 | 5:01.26 | 43510 | 66110 4 | 14:41.36 | 5:01.29 | 66111 | 88714 5 | 19:42.65 | 2:51.70 | 88715 | 101609 6 | 22:34.60 | 1:29.67 | 101610 | 108351 7 | 24:04.52 | 5:30.70 | 108352 | 133171 8 | 29:35.47 | 3:31.27 | 133172 | 149023 9 | 33:06.74 | 4:58.15 | 149024 | 171388 10 | 38:05.14 | 2:24.14 | 171389 | 182202 11 | 40:29.28 | 3:03.36 | 182203 | 195963 12 | 43:32.64 | 6:46.43 | 195964 | 226456 13 | 50:19.32 | 2:47.37 | 226457 | 239018 14 | 53:06.69 | 2:29.01 | 239019 | 250194 15 | 55:35.70 | 5:14.40 | 250195 | 273784 16 | 60:50.35 | 2:43.63 | 273785 | 286072 17 | 63:34.23 | 5:47.24 | 286073 | 312121 18 | 69:21.47 | 5:04.47 | 312122 | 334968 19 | 74:26.19 | 4:42.17 | 334969 | 356135
Range status and errors
Selected range
Filename C:\Users\Евгений\Music\Грабер\Various - Jutonish Progressive House Vol 0.wav
Peak level 97.7 % Extraction speed 2.7 X Range quality 99.9 % Test CRC 0B5F8139 Copy CRC 0B5F8139 Copy OK
No errors occurred
AccurateRip summary
Track 1 not present in databaseTrack 2 not present in databaseTrack 3 not present in databaseTrack 4 not present in databaseTrack 5 not present in databaseTrack 6 not present in databaseTrack 7 not present in databaseTrack 8 not present in databaseTrack 9 not present in databaseTrack 10 not present in databaseTrack 11 not present in databaseTrack 12 not present in databaseTrack 13 not present in databaseTrack 14 not present in databaseTrack 15 not present in databaseTrack 16 not present in databaseTrack 17 not present in databaseTrack 18 not present in databaseTrack 19 not present in database
None of the tracks are present in the AccurateRip database
End of status report
==== Log checksum A074D3457AA50FC76888F2C37480CB3329C3F09380AD4C9B682FF4F9D5D1EBA6 ====

[# none] - 2002 - VA - Jutonish Progressive House Vol 1

Жанр: Progressive House, Pumping House
Продолжительность: 01:10:49
Треклист:
01. Mr Dee-Jay - Rockit (2001 Remix) (4:48)
02. Sompriros - Vacasiones (5:18)
03. DJ's Promo - Bass Bass Bass Bass (3:46)
04. Groovaholics - How Funky Can You Be (Clubwatchers Remix) (4:37)
05. DJ N.R.Gize - Funky Beat (2001 Remix) (4:55)
06. Amen vs. Alex K - I Can't Wait (Club Remix) (5:45)
07. Mory Klein - Cap To The Bass (Klubbheads Remix) (4:39)
08. The Househeads - Bells (Pitcher Mix) (4:21)
09. Floorleiller - Dance Floorleiller (XXXL Mix) (5:33)
10. BK & Alan Thompson - Out There (5:58)
11. Barthezz - On The Move (Club Mix) (4:54)
12. Alex K - Shake It Up (4:38)
13. Dr.Bungee - Bungee Go (5:48)
14. Club Caviar - Game Over (5:49)

Лог создания рипа

Exact Audio Copy V1.3 from 2. September 2016
EAC extraction logfile from 8. March 2017, 10:48
Various / Jutonish Progressive House Vol.1
Used drive : ASUS SDRW-08D2S-U Adapter: 1 ID: 1
Read mode : SecureUtilize accurate stream : YesDefeat audio cache : YesMake use of C2 pointers : No
Read offset correction : 6Overread into Lead-In and Lead-Out : NoFill up missing offset samples with silence : YesDelete leading and trailing silent blocks : NoNull samples used in CRC calculations : YesUsed interface : Native Win32 interface for Win NT & 2000
Used output format : User Defined EncoderSelected bitrate : 128 kBit/sQuality : HighAdd ID3 tag : NoCommand line compressor : D:\flac-1.3.2-win\win64\flac.exeAdditional command line options : -V -8 -T "Date=%year%" -T "COMMENT=ripped by Andy aka yetiisyou" -T "Genre=%genre%" %source%
TOC of the extracted CD
Track | Start | Length | Start sector | End sector --------------------------------------------------------- 1 | 0:00.00 | 4:48.58 | 0 | 21657 2 | 4:48.58 | 5:18.72 | 21658 | 45579 3 | 10:07.55 | 3:46.12 | 45580 | 62541 4 | 13:53.67 | 4:37.68 | 62542 | 83384 5 | 18:31.60 | 4:55.08 | 83385 | 105517 6 | 23:26.68 | 5:45.11 | 105518 | 131403 7 | 29:12.04 | 4:39.15 | 131404 | 152343 8 | 33:51.19 | 4:21.51 | 152344 | 171969 9 | 38:12.70 | 5:34.05 | 171970 | 197024 10 | 43:47.00 | 5:58.08 | 197025 | 223882 11 | 49:45.08 | 4:54.23 | 223883 | 245955 12 | 54:39.31 | 4:38.39 | 245956 | 266844 13 | 59:17.70 | 5:48.66 | 266845 | 293010 14 | 65:06.61 | 5:49.29 | 293011 | 319214
Range status and errors
Selected range
Filename E:\!Ripped by Andy aka yetiisyou\[# none] - 2002 - VA - Jutonish Progressive House Vol 1\Various - Jutonish Progressive House Vol.1.wav
Peak level 98.8 % Extraction speed 4.9 X Range quality 100.0 % Test CRC 6529A368 Copy CRC 6529A368 Copy OK
No errors occurred
AccurateRip summary
Track 1 not present in databaseTrack 2 not present in databaseTrack 3 not present in databaseTrack 4 not present in databaseTrack 5 not present in databaseTrack 6 not present in databaseTrack 7 not present in databaseTrack 8 not present in databaseTrack 9 not present in databaseTrack 10 not present in databaseTrack 11 not present in databaseTrack 12 not present in databaseTrack 13 not present in databaseTrack 14 not present in database
None of the tracks are present in the AccurateRip database
End of status report
---- CUETools DB Plugin V2.1.6
[CTDB TOCID: EXDx3d4fG6H3raoOtlkMSLgnL_U-] disk not present in databaseSubmit result: EXDx3d4fG6H3raoOtlkMSLgnL_U- has been uploaded
==== Log checksum 3061952BC06328B2D6E598AC623CD0DC0BAA9D1345BEAD6783DCD424BA665E55 ====

[# none] - 2002 - VA - Jutonish Progressive House Vol 2

Жанр: Progressive House, Pumping House
Продолжительность: 01:09:55
Треклист:
01. DJ Hertz - Hit Me (6:01)
02. Klubbheads - Hip-Hop Don't Stop (Club Mix) (5:30)
03. SM Trax - Is Calling (Nick Skitz Mix) (5:50)
04. G-Spoot - NRG (Sam Remix) (4:33)
05. Anastasia - Set Me Free (Club Crasher Remix) (3:56)
06. DJ. Low - Ballon (Jorvi Golovce Mix) (4:40)
07. Disco Nation - Disco Nation (5:49)
08. DJ. Nr Gize - Time Is Now (4:38)
09. DJ-2001 vs. Gorillaz - Clint Eastwood (5:32)
10. Darude - Let The Music Take Control (5:02)
11. Maxi Paul - Tic Tuc Tac (4:07)
12. Dimas vs. Strinking Man - Da Lover You Go (4:38)
13. Rachel Auburn - Lexa-Lexa (Readyeddy Mix) (5:30)
14. DJ Jean - Lift Me Up (Club Mix) (4:09)

Лог создания рипа

Exact Audio Copy V1.1 from 23. June 2015
EAC extraction logfile from 6. October 2015, 15:59
Various / Jutonish Progressive House vol. 2
Used drive : ASUS SDRW-08D2S-U Adapter: 1 ID: 0
Read mode : SecureUtilize accurate stream : YesDefeat audio cache : YesMake use of C2 pointers : No
Read offset correction : 6Overread into Lead-In and Lead-Out : NoFill up missing offset samples with silence : YesDelete leading and trailing silent blocks : NoNull samples used in CRC calculations : YesUsed interface : Native Win32 interface for Win NT & 2000
Used output format : User Defined EncoderSelected bitrate : 32 kBit/sQuality : HighAdd ID3 tag : NoCommand line compressor : C:\Exact Audio Copy [installed]\Flac\flac.exeAdditional command line options : -V -8 -T "Date=%year%" -T "COMMENT=ripped by Andy aka yetiisyou" -T "Genre=%genre%" %source%
TOC of the extracted CD
Track | Start | Length | Start sector | End sector --------------------------------------------------------- 1 | 0:00.00 | 6:01.49 | 0 | 27123 2 | 6:01.49 | 5:30.18 | 27124 | 51891 3 | 11:31.67 | 5:50.60 | 51892 | 78201 4 | 17:22.52 | 4:33.30 | 78202 | 98706 5 | 21:56.07 | 3:56.62 | 98707 | 116468 6 | 25:52.69 | 4:40.22 | 116469 | 137490 7 | 30:33.16 | 5:49.25 | 137491 | 163690 8 | 36:22.41 | 4:38.69 | 163691 | 184609 9 | 41:01.35 | 5:32.21 | 184610 | 209530 10 | 46:33.56 | 5:03.00 | 209531 | 232255 11 | 51:36.56 | 4:07.63 | 232256 | 250843 12 | 55:44.44 | 4:38.58 | 250844 | 271751 13 | 60:23.27 | 5:30.00 | 271752 | 296501 14 | 65:53.27 | 4:09.24 | 296502 | 315200
Range status and errors
Selected range
Filename E:\!Ripped by Andy aka yetiisyou\[# none] - 2002 - VA - Jutonish Progressive House Vol 2\Various - Jutonish Progressive House vol. 2.wav
Peak level 100.0 % Extraction speed 4.8 X Range quality 100.0 % Test CRC 2D60933E Copy CRC 2D60933E Copy OK
No errors occurred
AccurateRip summary
Track 1 not present in databaseTrack 2 not present in databaseTrack 3 not present in databaseTrack 4 not present in databaseTrack 5 not present in databaseTrack 6 not present in databaseTrack 7 not present in databaseTrack 8 not present in databaseTrack 9 not present in databaseTrack 10 not present in databaseTrack 11 not present in databaseTrack 12 not present in databaseTrack 13 not present in databaseTrack 14 not present in database
None of the tracks are present in the AccurateRip database
End of status report
---- CUETools DB Plugin V2.1.6
[CTDB TOCID: aZbE0IiaWUAIrVqczZgpgWV9xLA-] disk not present in databaseSubmit result: aZbE0IiaWUAIrVqczZgpgWV9xLA- has been uploaded
==== Log checksum C9300A0860A2D76DCEC3C03C22FD805EF6398EBE946CA2D75BCC786FBC1BFA64 ====

[# none] - 2002 - VA - Jutonish Progressive House Vol 3

Жанр: Progressive House, Pumping House
Продолжительность: 01:12:57
Треклист:
01. Club Caviar - For The One (5:21)
02. Alex K. - Run 2 Paradise (5:41)
03. Antini S - Burning Up (5:56)
04. Multidubbers - Human One More (5:28)
05. House Jewels - Dance 2 The Beat (4:17)
06. Futura - You Got A Girl (4:55)
07. Zanda Project vs. Alex K. - Just Call Me Baby (6:08)
08. Laboratorium - Kolbasser (5:35)
09. Alex K. - Shake It Up (4:39)
10. Ultimate - Seduction (Rmx) (4:52)
11. Wheels On Track - Red Alert (3:44)
12. DJ NRGize - Night Train (5:54)
13. 2 Without The Money - The Euro Drugs (Ademt Rmx) (3:56)
14. DJ Formator - Turn It Up (6:31)

Лог создания рипа

Exact Audio Copy V1.1 from 23. June 2015
EAC extraction logfile from 16. October 2015, 23:37
Various Artists / Jutonish Progressive House vol. 3
Used drive : ASUS SDRW-08D2S-U Adapter: 1 ID: 0
Read mode : SecureUtilize accurate stream : YesDefeat audio cache : YesMake use of C2 pointers : No
Read offset correction : 6Overread into Lead-In and Lead-Out : NoFill up missing offset samples with silence : YesDelete leading and trailing silent blocks : NoNull samples used in CRC calculations : YesUsed interface : Native Win32 interface for Win NT & 2000
Used output format : User Defined EncoderSelected bitrate : 32 kBit/sQuality : HighAdd ID3 tag : NoCommand line compressor : C:\Exact Audio Copy [installed]\Flac\flac.exeAdditional command line options : -V -8 -T "Date=%year%" -T "COMMENT=ripped by Andy aka yetiisyou" -T "Genre=%genre%" %source%
TOC of the extracted CD
Track | Start | Length | Start sector | End sector --------------------------------------------------------- 1 | 0:00.00 | 5:21.46 | 0 | 24120 2 | 5:21.46 | 5:41.35 | 24121 | 49730 3 | 11:03.06 | 5:56.10 | 49731 | 76440 4 | 16:59.16 | 5:28.45 | 76441 | 101085 5 | 22:27.61 | 4:17.66 | 101086 | 120426 6 | 26:45.52 | 4:55.34 | 120427 | 142585 7 | 31:41.11 | 6:08.01 | 142586 | 170186 8 | 37:49.12 | 5:35.62 | 170187 | 195373 9 | 43:24.74 | 4:39.14 | 195374 | 216312 10 | 48:04.13 | 4:52.18 | 216313 | 238230 11 | 52:56.31 | 3:44.14 | 238231 | 255044 12 | 56:40.45 | 5:54.34 | 255045 | 281628 13 | 62:35.04 | 3:56.53 | 281629 | 299381 14 | 66:31.57 | 6:31.47 | 299382 | 328753
Range status and errors
Selected range
Filename E:\!Ripped by Andy aka yetiisyou\[# none] - 2002 - VA - Jutonish Progressive House Vol 3\Various Artists - Jutonish Progressive House vol. 3.wav
Peak level 96.9 % Extraction speed 4.9 X Range quality 99.9 % Test CRC 6507F3BD Copy CRC 6507F3BD Copy OK
No errors occurred
AccurateRip summary
Track 1 not present in databaseTrack 2 not present in databaseTrack 3 not present in databaseTrack 4 not present in databaseTrack 5 not present in databaseTrack 6 not present in databaseTrack 7 not present in databaseTrack 8 not present in databaseTrack 9 not present in databaseTrack 10 not present in databaseTrack 11 not present in databaseTrack 12 not present in databaseTrack 13 not present in databaseTrack 14 not present in database
None of the tracks are present in the AccurateRip database
End of status report
---- CUETools DB Plugin V2.1.6
[CTDB TOCID: gVuyZZqvuth9mfxaRlH8zBu1X3U-] disk not present in databaseSubmit result: gVuyZZqvuth9mfxaRlH8zBu1X3U- has been uploaded
==== Log checksum 8635574BFD0F7164943C5EB75AD5185A195F27A69878B80176F5BCF037FB9C03 ====

[# none] - 2002 - VA - Jutonish Progressive House Vol 4

Жанр: Progressive House, Pumping House
Продолжительность: 01:15:50
Треклист:
01. DJ JT - Bad (DJ Nemetz Cut) (7:18)
02. DJ N.R.Gize - Meets Peter Fly (3:42)
03. Alex K. - Rabba Dub Dub (6:25)
04. DJ Bochia - Voodoo People (5:11)
05. Wheels On Track - Party Forever (4:05)
06. DJ Strovn - Serious Sound (6:21)
07. Special For - Da Lover You Go (4:17)
08. Multidubbers - Mane Believe (4:57)
09. Three Some - Please Forgive Me (Eazy Mix) (4:01)
10. Under Dog Project - I Can't Handle It (Alex K. Mix) (4:45)
11. Ultra Nate - Get It Up (4:46)
12. Slim Line - Stop Rockin (3:46)
13. DJ Tanzen - Check This Sound (5:22)
14. Banji Boys - Free Florida (5:28)
15. DJ Chase - The Chase is On (Strike Force Rmx) (5:26)

Лог создания рипа

Exact Audio Copy V1.0 beta 3 from 29. August 2011
EAC extraction logfile from 27. January 2013, 22:54
Various / Jutonish Progressive House Vol 4
Used drive : MATSHITADVD-R UJ-8A8 Adapter: 1 ID: 0
Read mode : SecureUtilize accurate stream : YesDefeat audio cache : YesMake use of C2 pointers : No
Read offset correction : 102Overread into Lead-In and Lead-Out : NoFill up missing offset samples with silence : YesDelete leading and trailing silent blocks : NoNull samples used in CRC calculations : YesUsed interface : Native Win32 interface for Win NT & 2000
Used output format : User Defined EncoderSelected bitrate : 768 kBit/sQuality : HighAdd ID3 tag : NoCommand line compressor : C:\Program Files (x86)\Exact Audio Copy\FLAC\FLAC.EXEAdditional command line options : -V -8 -T "Genre=%genre%" -T "Artist=%artist%" -T "Title=%title%" -T "Album=%albumtitle%" -T "Date=%year%" -T "Tracknumber=%tracknr%" -T "Comment=%comment%" %source%
TOC of the extracted CD
Track | Start | Length | Start sector | End sector --------------------------------------------------------- 1 | 0:00.00 | 7:18.40 | 0 | 32889 2 | 7:18.40 | 3:42.21 | 32890 | 49560 3 | 11:00.61 | 6:25.68 | 49561 | 78503 4 | 17:26.54 | 5:11.29 | 78504 | 101857 5 | 22:38.08 | 4:05.02 | 101858 | 120234 6 | 26:43.10 | 6:21.26 | 120235 | 148835 7 | 33:04.36 | 4:17.39 | 148836 | 168149 8 | 37:22.00 | 4:57.65 | 168150 | 190489 9 | 42:19.65 | 4:01.66 | 190490 | 208630 10 | 46:21.56 | 4:45.65 | 208631 | 230070 11 | 51:07.46 | 4:46.24 | 230071 | 251544 12 | 55:53.70 | 3:46.28 | 251545 | 268522 13 | 59:40.23 | 5:22.69 | 268523 | 292741 14 | 65:03.17 | 5:28.40 | 292742 | 317381 15 | 70:31.57 | 5:26.38 | 317382 | 341869
Range status and errors
Selected range
Filename C:\Users\Евгений\Music\Грабер\Various - Jutonish Progressive House Vol 4.wav
Peak level 97.7 % Extraction speed 5.2 X Range quality 100.0 % Test CRC 6A851DF9 Copy CRC 6A851DF9 Copy OK
No errors occurred
AccurateRip summary
Track 1 not present in databaseTrack 2 not present in databaseTrack 3 not present in databaseTrack 4 not present in databaseTrack 5 not present in databaseTrack 6 not present in databaseTrack 7 not present in databaseTrack 8 not present in databaseTrack 9 not present in databaseTrack 10 not present in databaseTrack 11 not present in databaseTrack 12 not present in databaseTrack 13 not present in databaseTrack 14 not present in databaseTrack 15 not present in database
None of the tracks are present in the AccurateRip database
End of status report
==== Log checksum 7554680A46FB9A9EF624708D8F5DA524977A41F5EB5E19D9661E1B0091C818E1 ====

[# none] - 2002 - VA - Jutonish Progressive House Vol 5

Жанр: Progressive House, Pumping House
Продолжительность: 01:14:27
Треклист:
01. Avantgarde - Get Down (Slim Line Rmx) (6:11)
02. DJ Nemets - Blue & Red (Rmx) (4:42)
03. Alex K. - Wappa (6:31)
04. Head Horny's - To The Beat (3:08)
05. Club Jock - Feeling (4:08)
06. Da Klubb Crew - Can't Get The Bamboo Out Of My Head (4:16)
07. Rhythm Masters - Back Again (4:44)
08. Mass Medium - Mindblower (3:09)
09. Fascinator - Hare We Go (Strike Force Remix) (5:53)
10. Clan DJ Team - My Games (4:04)
11. DJ Frank - Inside (3:06)
12. DJ Nemets - Welcome To Ibiza (5:08)
13. Head Horny's & DJ Miguel Serna - Real MC (5:09)
14. Crocodite's - Whistle Song 2002 (Inside Up Inside Down Mix) (3:07)
15. Brainmasters - Hey DJ (5:21)
16. Toddi Z - Fuck It (5:50)

Лог создания рипа

Exact Audio Copy V1.3 from 2. September 2016
EAC extraction logfile from 24. January 2018, 21:09
Jutonish / Progressive House Vol 5
Used drive : ASUS DRW-24B5ST Adapter: 6 ID: 0
Read mode : SecureUtilize accurate stream : YesDefeat audio cache : YesMake use of C2 pointers : No
Read offset correction : 6Overread into Lead-In and Lead-Out : NoFill up missing offset samples with silence : YesDelete leading and trailing silent blocks : NoNull samples used in CRC calculations : YesUsed interface : Installed external ASPI interface
Used output format : User Defined EncoderSelected bitrate : 128 kBit/sQuality : HighAdd ID3 tag : NoCommand line compressor : D:\flac-1.3.2-win\win64\flac.exeAdditional command line options : -V -8 -T "Date=%year%" -T "COMMENT=ripped by Andy aka yetiisyou" -T "Genre=%genre%" %source%
TOC of the extracted CD
Track | Start | Length | Start sector | End sector --------------------------------------------------------- 1 | 0:00.00 | 6:11.61 | 0 | 27885 2 | 6:11.61 | 4:42.28 | 27886 | 49063 3 | 10:54.14 | 6:31.35 | 49064 | 78423 4 | 17:25.49 | 3:08.13 | 78424 | 92536 5 | 20:33.62 | 4:08.51 | 92537 | 111187 6 | 24:42.38 | 4:16.74 | 111188 | 130461 7 | 28:59.37 | 4:44.12 | 130462 | 151773 8 | 33:43.49 | 3:09.08 | 151774 | 165956 9 | 36:52.57 | 5:53.71 | 165957 | 192502 10 | 42:46.53 | 4:04.59 | 192503 | 210861 11 | 46:51.37 | 3:06.07 | 210862 | 224818 12 | 49:57.44 | 5:08.19 | 224819 | 247937 13 | 55:05.63 | 5:09.67 | 247938 | 271179 14 | 60:15.55 | 3:07.51 | 271180 | 285255 15 | 63:23.31 | 5:21.29 | 285256 | 309359 16 | 68:44.60 | 5:50.20 | 309360 | 335629
Range status and errors
Selected range
Filename E:\!Ripped by Andy aka yetiisyou\[# none] - 2002 - VA - Jutonish Progressive House Vol 5\Jutonish - Progressive House Vol 5.wav
Peak level 97.7 % Extraction speed 5.6 X Range quality 99.9 % Test CRC 10C5142E Copy CRC 10C5142E Copy OK
No errors occurred
AccurateRip summary
Track 1 not present in databaseTrack 2 not present in databaseTrack 3 not present in databaseTrack 4 not present in databaseTrack 5 not present in databaseTrack 6 not present in databaseTrack 7 not present in databaseTrack 8 not present in databaseTrack 9 not present in databaseTrack 10 not present in databaseTrack 11 not present in databaseTrack 12 not present in databaseTrack 13 not present in databaseTrack 14 not present in databaseTrack 15 not present in databaseTrack 16 not present in database
None of the tracks are present in the AccurateRip database
End of status report
---- CUETools DB Plugin V2.1.6
[CTDB TOCID: mt43vxKJTcaq.sdLBx58CVSDNR0-] disk not present in databaseSubmit result: mt43vxKJTcaq.sdLBx58CVSDNR0- has been uploaded
==== Log checksum 0FA087465422FCDD017BBA7D0D618B0BDA677C0E72CF44AD0C76B22254E4A65E ====

[# none] - 2002 - VA - Jutonish Progressive House Vol 6

Жанр: Progressive House, Pumping House
Продолжительность: 01:13:39
Треклист:
01. JVA - Everybody In Da House (5:29)
02. DJ's Promo - It's Not Over (4:57)
03. Head Horneys - To The Bass (3:55)
04. Hi-Lite - You Don't Stop (3:45)
05. Maxi Paul - Do What You Wanna Do (4:55)
06. DJ's Promo - You Head (4:15)
07. DJ's Promo - If You Wanna Party (4:33)
08. KGB - High Jacker (4:40)
09. B.Da! - Barynya (4:48)
10. DJ's Promo - Chek This Out (Promo Remix) (4:42)
11. Wheels On Track - Red Alert (DJ Hertz 2002 Mix) (2:44)
12. Ten Talle Sings - Party Pimp (Weels On Track Mix) (4:35)
13. DJ Nemets - Da Bomb (Club Mix) (4:41)
14. Cool Shrankaz - Dirty (4:55)
15. KGB - Wham Bam (5:03)
16. South East Players - Music (5:42)

Лог создания рипа

Exact Audio Copy V1.0 beta 3 from 29. August 2011
EAC extraction logfile from 28. January 2013, 21:36
Various / Jutonish Progressive House Vol 6
Used drive : MATSHITADVD-R UJ-8A8 Adapter: 1 ID: 0
Read mode : SecureUtilize accurate stream : YesDefeat audio cache : YesMake use of C2 pointers : No
Read offset correction : 102Overread into Lead-In and Lead-Out : NoFill up missing offset samples with silence : YesDelete leading and trailing silent blocks : NoNull samples used in CRC calculations : YesUsed interface : Native Win32 interface for Win NT & 2000
Used output format : User Defined EncoderSelected bitrate : 768 kBit/sQuality : HighAdd ID3 tag : NoCommand line compressor : C:\Program Files (x86)\Exact Audio Copy\FLAC\FLAC.EXEAdditional command line options : -V -8 -T "Genre=%genre%" -T "Artist=%artist%" -T "Title=%title%" -T "Album=%albumtitle%" -T "Date=%year%" -T "Tracknumber=%tracknr%" -T "Comment=%comment%" %source%
TOC of the extracted CD
Track | Start | Length | Start sector | End sector --------------------------------------------------------- 1 | 0:00.00 | 5:29.62 | 0 | 24736 2 | 5:29.62 | 4:57.49 | 24737 | 47060 3 | 10:27.36 | 3:55.56 | 47061 | 64741 4 | 14:23.17 | 3:45.51 | 64742 | 81667 5 | 18:08.68 | 4:55.50 | 81668 | 103842 6 | 23:04.43 | 4:15.22 | 103843 | 122989 7 | 27:19.65 | 4:33.42 | 122990 | 143506 8 | 31:53.32 | 4:40.14 | 143507 | 164520 9 | 36:33.46 | 4:48.55 | 164521 | 186175 10 | 41:22.26 | 4:42.17 | 186176 | 207342 11 | 46:04.43 | 2:44.41 | 207343 | 219683 12 | 48:49.09 | 4:35.27 | 219684 | 240335 13 | 53:24.36 | 4:41.57 | 240336 | 261467 14 | 58:06.18 | 4:55.11 | 261468 | 283603 15 | 63:01.29 | 5:03.23 | 283604 | 306351 16 | 68:04.52 | 5:42.72 | 306352 | 332073
Range status and errors
Selected range
Filename C:\Users\Евгений\Music\Грабер\Various - Jutonish Progressive House Vol 6.wav
Peak level 98.9 % Extraction speed 2.7 X Range quality 100.0 % Test CRC F98BA03D Copy CRC F98BA03D Copy OK
No errors occurred
AccurateRip summary
Track 1 not present in databaseTrack 2 not present in databaseTrack 3 not present in databaseTrack 4 not present in databaseTrack 5 not present in databaseTrack 6 not present in databaseTrack 7 not present in databaseTrack 8 not present in databaseTrack 9 not present in databaseTrack 10 not present in databaseTrack 11 not present in databaseTrack 12 not present in databaseTrack 13 not present in databaseTrack 14 not present in databaseTrack 15 not present in databaseTrack 16 not present in database
None of the tracks are present in the AccurateRip database
End of status report
==== Log checksum 596CE27F8C81E640FB523763BAD1C112D3E4C3057635EA0034729F6A1D84A1B0 ====

[JHPCD-07 / AFCD-001] - 2002 - VA - Jutonish Progressive House Vol 7

Жанр: Progressive House, Pumping House, Hard House
Продолжительность: 01:18:11
Треклист:
01. Sonic Mine - Deep In The Underground (5:47)
02. DJ Daniel Allan - Cindy's Ball (3:28)
03. In-Grid - Tu Es Foutu (DJ Nemets Mix) (4:39)
04. Hampenberg - Duck Toy (DJ DBC Mix) (4:26)
05. DJ Maki & DJ Tracker - Clap On To Me (4:47)
06. DJ Alfredo Pareja - Good Vibration (4:46)
07. Drunken Munky - E (DJ Boozy Woozy Mix) (4:21)
08. Replicator - No Sleep (4:51)
09. DJ Nemets - R U Ready 4 Some More (3:46)
10. DJ Nemets - Mad More 2002 (4:06)
11. DJ Nemets - Money 4 Nothing (6:04)
12. Wheels On Track - Wiggle It (4:45)
13. DJ Ules - House Music (4:58)
14. Maxi Paul - The Farmer (5:10)
15. Raptor - Come On (Head Horny's Mix) (3:53)
16. DJ Ules - XTC Love (4:09)
17. Sonic Mine - Chek (4:15)

Лог создания рипа

Exact Audio Copy V1.0 beta 3 from 29. August 2011
EAC extraction logfile from 28. January 2013, 22:47
Various / Jutonish Progressive House Vol 7
Used drive : MATSHITADVD-R UJ-8A8 Adapter: 1 ID: 0
Read mode : SecureUtilize accurate stream : YesDefeat audio cache : YesMake use of C2 pointers : No
Read offset correction : 102Overread into Lead-In and Lead-Out : NoFill up missing offset samples with silence : YesDelete leading and trailing silent blocks : NoNull samples used in CRC calculations : YesUsed interface : Native Win32 interface for Win NT & 2000
Used output format : User Defined EncoderSelected bitrate : 768 kBit/sQuality : HighAdd ID3 tag : NoCommand line compressor : C:\Program Files (x86)\Exact Audio Copy\FLAC\FLAC.EXEAdditional command line options : -V -8 -T "Genre=%genre%" -T "Artist=%artist%" -T "Title=%title%" -T "Album=%albumtitle%" -T "Date=%year%" -T "Tracknumber=%tracknr%" -T "Comment=%comment%" %source%
TOC of the extracted CD
Track | Start | Length | Start sector | End sector --------------------------------------------------------- 1 | 0:00.00 | 5:47.57 | 0 | 26081 2 | 5:47.57 | 3:28.74 | 26082 | 41755 3 | 9:16.56 | 4:39.14 | 41756 | 62694 4 | 13:55.70 | 4:26.10 | 62695 | 82654 5 | 18:22.05 | 4:47.23 | 82655 | 104202 6 | 23:09.28 | 4:46.66 | 104203 | 125718 7 | 27:56.19 | 4:21.13 | 125719 | 145306 8 | 32:17.32 | 4:51.70 | 145307 | 167201 9 | 37:09.27 | 3:47.02 | 167202 | 184228 10 | 40:56.29 | 4:06.34 | 184229 | 202712 11 | 45:02.63 | 6:04.62 | 202713 | 230074 12 | 51:07.50 | 4:45.23 | 230075 | 251472 13 | 55:52.73 | 4:58.20 | 251473 | 273842 14 | 60:51.18 | 5:10.71 | 273843 | 297163 15 | 66:02.14 | 3:53.19 | 297164 | 314657 16 | 69:55.33 | 4:09.43 | 314658 | 333375 17 | 74:05.01 | 4:15.55 | 333376 | 352555
Range status and errors
Selected range
Filename C:\Users\Евгений\Music\Грабер\Various - Jutonish Progressive House Vol 7.wav
Peak level 98.8 % Extraction speed 2.8 X Range quality 100.0 % Test CRC 715FF5E6 Copy CRC 715FF5E6 Copy OK
No errors occurred
AccurateRip summary
Track 1 not present in databaseTrack 2 not present in databaseTrack 3 not present in databaseTrack 4 not present in databaseTrack 5 not present in databaseTrack 6 not present in databaseTrack 7 not present in databaseTrack 8 not present in databaseTrack 9 not present in databaseTrack 10 not present in databaseTrack 11 not present in databaseTrack 12 not present in databaseTrack 13 not present in databaseTrack 14 not present in databaseTrack 15 not present in databaseTrack 16 not present in databaseTrack 17 not present in database
None of the tracks are present in the AccurateRip database
End of status report
==== Log checksum DCA85D5D063077FAED45909B4384B74249A124800CF95ADF15EC92CC93D7DEF1 ====

[STIMUL 01] - 2002 - VA - DJ Nemets - Progressive House

Жанр: Progressive House, Pumping House
Продолжительность: 01:13:36
Треклист:
01. Question - Pornostar (5:34)
02. DJ Jay Tee - Quacky Shmacky (4:14)
03. DJ Jay Tee - The Beat Of Year (6:49)
04. Alex K - Outta My Head (4:00)
05. Chocolate vs. Kriminal Warriors - In My House (6:14)
06. 2 Brothers - Intracity (4:40)
07. 2 Brothers - Black Rabbit (4:53)
08. Head Horny's - Secret (5:21)
09. Rockola - Rock Da House (5:07)
10. DJ Nrgize & Peter Fly - Ain't Nobody (4:20)
11. DJ Nemets - (Promo Mix) (3:54)
12. 12 Inch Thumpers - This Is One (6:01)
13. DJ Web - Fuck Off (4:41)
14. DJ Nemets - Whiplash (Hard Bass Mix) (4:13)
15. Head Horny's - Upside Down (3:35)

Лог создания рипа

Exact Audio Copy V1.0 beta 3 from 29. August 2011
EAC extraction logfile from 16. July 2013, 18:54
Various / Dj Nemets - Progressive House
Used drive : MATSHITADVD-R UJ-8A8 Adapter: 2 ID: 0
Read mode : SecureUtilize accurate stream : YesDefeat audio cache : YesMake use of C2 pointers : No
Read offset correction : 102Overread into Lead-In and Lead-Out : NoFill up missing offset samples with silence : YesDelete leading and trailing silent blocks : NoNull samples used in CRC calculations : YesUsed interface : Native Win32 interface for Win NT & 2000
Used output format : User Defined EncoderSelected bitrate : 128 kBit/sQuality : HighAdd ID3 tag : NoCommand line compressor : C:\Program Files (x86)\Exact Audio Copy\Flac\flac.exeAdditional command line options : -V -8 -T "Genre=%genre%" -T "Artist=%artist%" -T "Title=%title%" -T "Album=%albumtitle%" -T "Date=%year%" -T "Tracknumber=%tracknr%" -T "Comment=%comment%" %source%
TOC of the extracted CD
Track | Start | Length | Start sector | End sector --------------------------------------------------------- 1 | 0:00.00 | 5:34.21 | 0 | 25070 2 | 5:34.21 | 4:14.08 | 25071 | 44128 3 | 9:48.29 | 6:49.41 | 44129 | 74844 4 | 16:37.70 | 4:00.49 | 74845 | 92893 5 | 20:38.44 | 6:14.10 | 92894 | 120953 6 | 26:52.54 | 4:40.42 | 120954 | 141995 7 | 31:33.21 | 4:53.60 | 141996 | 164030 8 | 36:27.06 | 5:21.14 | 164031 | 188119 9 | 41:48.20 | 5:07.42 | 188120 | 211186 10 | 46:55.62 | 4:20.69 | 211187 | 230755 11 | 51:16.56 | 3:54.07 | 230756 | 248312 12 | 55:10.63 | 6:00.74 | 248313 | 275386 13 | 61:11.62 | 4:41.72 | 275387 | 296533 14 | 65:53.59 | 4:13.08 | 296534 | 315516 15 | 70:06.67 | 3:35.72 | 315517 | 331713
Range status and errors
Selected range
Filename C:\Users\MacBook\Music\Грабер\Various - Dj Nemets - Progressive House.wav
Peak level 97.7 % Extraction speed 5.3 X Range quality 100.0 % Test CRC 02840381 Copy CRC 02840381 Copy OK
No errors occurred
AccurateRip summary
Track 1 not present in databaseTrack 2 not present in databaseTrack 3 not present in databaseTrack 4 not present in databaseTrack 5 not present in databaseTrack 6 not present in databaseTrack 7 not present in databaseTrack 8 not present in databaseTrack 9 not present in databaseTrack 10 not present in databaseTrack 11 not present in databaseTrack 12 not present in databaseTrack 13 not present in databaseTrack 14 not present in databaseTrack 15 not present in database
None of the tracks are present in the AccurateRip database
End of status report
==== Log checksum EB856185D1650BDED3C80CF93EB3969BACA2C7160A8BFA65239553E738247682 ====

[JHCD-02] - 2002 - VA - DJ Nemets - Speed, Pump & Progressive Vol 2

Жанр: Progressive House, Dutch Klubb House
Продолжительность: 01:11:54
Треклист:
01. Lunatico's - Frequency (4:55)
02. DJ Jay Tee - Let Me Show U It (2002 Mix) (4:15)
03. JVA - Don't Stop (4:27)
04. Slim Line - You Don't Stop (4:16)
05. ReeLoop - Fucking Society (6:03)
06. J. Fandando - The Sound (DJ Nemets Re-edit) (4:54)
07. Da Bootleggers - Reconstruction (4:27)
08. Sidesteppers - Move To The Dancefloor (Original Mix) (4:23)
09. Super Seaker - The Melody (B.O.B. Ltd Pianomix) (3:33)
10. B.O.B. Ltd - That Old Piano (Limited Sasa Mix) (4:12)
11. Neutron Tom - Funky Shit (Mr. Bishi Mix) (4:26)
12. Da Hool - ... Love Parade (Voodoo & Serano Mix) (6:07)
13. DJ Nemets - Speed, Pump & Progressive Vol 2 - Track 13 (4:37)
14. Silverblue - Step Back (4:39)
15. DJ Nemets - In My Dreams (In The End Mix) (6:40)

Лог создания рипа

Exact Audio Copy V1.0 beta 3 from 29. August 2011
EAC extraction logfile from 14. July 2013, 14:59
Various / Dj Nemets - Speed, Pump & Progressive Vol 2
Used drive : MATSHITADVD-R UJ-8A8 Adapter: 2 ID: 0
Read mode : SecureUtilize accurate stream : YesDefeat audio cache : YesMake use of C2 pointers : No
Read offset correction : 102Overread into Lead-In and Lead-Out : NoFill up missing offset samples with silence : YesDelete leading and trailing silent blocks : NoNull samples used in CRC calculations : YesUsed interface : Native Win32 interface for Win NT & 2000
Used output format : User Defined EncoderSelected bitrate : 128 kBit/sQuality : HighAdd ID3 tag : NoCommand line compressor : C:\Program Files (x86)\Exact Audio Copy\Flac\flac.exeAdditional command line options : -V -8 -T "Genre=%genre%" -T "Artist=%artist%" -T "Title=%title%" -T "Album=%albumtitle%" -T "Date=%year%" -T "Tracknumber=%tracknr%" -T "Comment=%comment%" %source%
TOC of the extracted CD
Track | Start | Length | Start sector | End sector --------------------------------------------------------- 1 | 0:00.00 | 4:55.58 | 0 | 22182 2 | 4:55.58 | 4:15.28 | 22183 | 41335 3 | 9:11.11 | 4:27.59 | 41336 | 61419 4 | 13:38.70 | 4:16.07 | 61420 | 80626 5 | 17:55.02 | 6:03.12 | 80627 | 107863 6 | 23:58.14 | 4:54.03 | 107864 | 129916 7 | 28:52.17 | 4:27.45 | 129917 | 149986 8 | 33:19.62 | 4:23.25 | 149987 | 169736 9 | 37:43.12 | 3:33.30 | 169737 | 185741 10 | 41:16.42 | 4:12.65 | 185742 | 204706 11 | 45:29.32 | 4:26.66 | 204707 | 224722 12 | 49:56.23 | 6:07.67 | 224723 | 252314 13 | 56:04.15 | 4:37.42 | 252315 | 273131 14 | 60:41.57 | 4:39.53 | 273132 | 294109 15 | 65:21.35 | 6:40.36 | 294110 | 324145
Range status and errors
Selected range
Filename C:\Users\MacBook\Music\Грабер\Various - Dj Nemets - Speed, Pump & Progressive Vol 2.wav
Peak level 97.7 % Extraction speed 5.2 X Range quality 100.0 % Test CRC 0D8C0FFD Copy CRC 0D8C0FFD Copy OK
No errors occurred
AccurateRip summary
Track 1 not present in databaseTrack 2 not present in databaseTrack 3 not present in databaseTrack 4 not present in databaseTrack 5 not present in databaseTrack 6 not present in databaseTrack 7 not present in databaseTrack 8 not present in databaseTrack 9 not present in databaseTrack 10 not present in databaseTrack 11 not present in databaseTrack 12 not present in databaseTrack 13 not present in databaseTrack 14 not present in databaseTrack 15 not present in database
None of the tracks are present in the AccurateRip database
End of status report
==== Log checksum 612EEBDC718CB051DFBB5816D83A05DB4A6DF08E808ED753DF5F01A833BD8927 ====

[# none] - 2006 - PR Project - Чёрно-белый PR


01. PR Project - Чёрно-белый PR [1:08:05]

Log

Exact Audio Copy V1.3 from 2. September 2016
EAC extraction logfile from 26. January 2018, 22:59
PR Project / Чёрно-белый PR
Used drive : ASUS SDRW-08D2S-U Adapter: 8 ID: 6
Read mode : SecureUtilize accurate stream : YesDefeat audio cache : YesMake use of C2 pointers : No
Read offset correction : 6Overread into Lead-In and Lead-Out : NoFill up missing offset samples with silence : YesDelete leading and trailing silent blocks : NoNull samples used in CRC calculations : YesUsed interface : Installed external ASPI interface
Used output format : User Defined EncoderSelected bitrate : 128 kBit/sQuality : HighAdd ID3 tag : NoCommand line compressor : D:\flac-1.3.2-win\win64\flac.exeAdditional command line options : -V -8 -T "Date=%year%" -T "COMMENT=ripped by Andy aka yetiisyou" -T "Genre=%genre%" %source%
TOC of the extracted CD
Track | Start | Length | Start sector | End sector --------------------------------------------------------- 1 | 0:00.00 | 68:04.63 | 0 | 306362
Range status and errors
Selected range
Filename E:\!Ripped by Andy aka yetiisyou\2006 - [#none] - PR Project - Чёрно-белый PR\PR Project - Чёрно-белый PR.wav
Peak level 100.0 % Extraction speed 5.1 X Range quality 100.0 % Test CRC 8A7F99C6 Copy CRC 8A7F99C6 Copy OK
No errors occurred
AccurateRip summary
Track 1 not present in database
None of the tracks are present in the AccurateRip database
End of status report
---- CUETools DB Plugin V2.1.6
[CTDB TOCID: q1B_ks5FxjsnxouCgiw4xjnVbLY-] disk not present in databaseSubmit result: q1B_ks5FxjsnxouCgiw4xjnVbLY- has been uploaded
==== Log checksum 68F81CF1C9F21B481F1AE79D36C91B6207921F96A5329EE6EB2E79E9DE6B0783 ====

[AFCD-002] - 2002 - VA - DJ Турист - Pump Up The Volume

Жанр: Pumping House, Progressive House, Hard House
Продолжительность: 01:19:45
Треклист:
01. DJ Balen - Waiting 4 U (5:52)
02. DJ Maki vs. DJ Tracker - To Dance (DJ DBC Mix) (3:42)
03. Head Horny`s vs. Miguel Serna - Bang Bang (Klubb Mix) (4:46)
04. Candy-O - Passion (Head Horny`s Mix) (5:25)
05. T-Comissi - C`Mon Work (4:48)
06. DJ Carlo - Rock The Bass (4:34)
07. DJ Kaspita vs. Mario EP - Secret Sound (5:13)
08. DJ DBC - Tetris (5:55)
09. Ismael Lora - Kickin Hard Base (5:26)
10. The Fase - No Name (Head Horny`s Mix) (3:40)
11. Exodos - I Don`t Now (4:07)
12. Raptor - Ump,Ops (5:26)
13. Usa Rafa - Rock The Beat (4:46)
14. Head Horny`s - Kickin` (6:43)
15. David Cadeza - This Is 4 Listen (4:07)
16. Tim Wokan - Party Hype (5:15)

Лог создания рипа

Exact Audio Copy V1.1 from 23. June 2015
EAC extraction logfile from 18. October 2015, 21:00
Dj Турист / Pump Up The Volume
Used drive : ASUS SDRW-08D2S-U Adapter: 1 ID: 0
Read mode : SecureUtilize accurate stream : YesDefeat audio cache : YesMake use of C2 pointers : No
Read offset correction : 6Overread into Lead-In and Lead-Out : NoFill up missing offset samples with silence : YesDelete leading and trailing silent blocks : NoNull samples used in CRC calculations : YesUsed interface : Native Win32 interface for Win NT & 2000
Used output format : User Defined EncoderSelected bitrate : 32 kBit/sQuality : HighAdd ID3 tag : NoCommand line compressor : C:\Exact Audio Copy [installed]\Flac\flac.exeAdditional command line options : -V -8 -T "Date=%year%" -T "COMMENT=ripped by Andy aka yetiisyou" -T "Genre=%genre%" %source%
TOC of the extracted CD
Track | Start | Length | Start sector | End sector --------------------------------------------------------- 1 | 0:00.00 | 5:52.51 | 0 | 26450 2 | 5:52.51 | 3:42.05 | 26451 | 43105 3 | 9:34.56 | 4:46.59 | 43106 | 64614 4 | 14:21.40 | 5:25.69 | 64615 | 89058 5 | 19:47.34 | 4:48.49 | 89059 | 110707 6 | 24:36.08 | 4:34.38 | 110708 | 131295 7 | 29:10.46 | 5:13.42 | 131296 | 154812 8 | 34:24.13 | 5:55.60 | 154813 | 181497 9 | 40:19.73 | 5:26.29 | 181498 | 205976 10 | 45:46.27 | 3:40.17 | 205977 | 222493 11 | 49:26.44 | 4:08.04 | 222494 | 241097 12 | 53:34.48 | 5:26.30 | 241098 | 265577 13 | 59:01.03 | 4:46.46 | 265578 | 287073 14 | 63:47.49 | 6:43.32 | 287074 | 317330 15 | 70:31.06 | 4:07.19 | 317331 | 335874 16 | 74:38.25 | 5:15.10 | 335875 | 359509
Range status and errors
Selected range
Filename E:\!Ripped by Andy aka yetiisyou\[AFCD-002] - 2002 - VA - DJ Турист - Pump Up The Volume\Dj Турист - Pump Up The Volume.wav
Peak level 98.8 % Extraction speed 2.4 X Range quality 100.0 % Test CRC 86508AC7 Copy CRC 86508AC7 Copy OK
No errors occurred
AccurateRip summary
Track 1 not present in databaseTrack 2 not present in databaseTrack 3 not present in databaseTrack 4 not present in databaseTrack 5 not present in databaseTrack 6 not present in databaseTrack 7 not present in databaseTrack 8 not present in databaseTrack 9 not present in databaseTrack 10 not present in databaseTrack 11 not present in databaseTrack 12 not present in databaseTrack 13 not present in databaseTrack 14 not present in databaseTrack 15 not present in databaseTrack 16 not present in database
None of the tracks are present in the AccurateRip database
End of status report
---- CUETools DB Plugin V2.1.6
[CTDB TOCID: GC2f1HOErtyGvbBMpg6ayR5FMpY-] disk not present in databaseSubmit result: GC2f1HOErtyGvbBMpg6ayR5FMpY- has been uploaded
==== Log checksum A3841B2C5EDA2F50A186915F2465446E07C5A00B6B62F3945277324011CFD6C2 ====
[# none] - 2003 - Dj Турист - Pump vs. Progressive House
Продолжительность: 01:14:58
01. Sound Of Leima DJ's - Back to the born [04:40]
02. Hardhouse Corporation - 3, 2, 1, Reaady [04:37]
03. Hardnoise - Enjoy Jump [04:50]
04. Ruben Hit - Take the sound [05:15]
05. Angie Dj - Drop the bass (Klubb'ed Mix) [05:03]
06. Albades feat. Saray - Easy track [05:03]
07. Dj Gusta & Oscar Dee - The old school [05:03]
08. Kriminal Warriors - Scream! [05:03]
09. Dj Gusta & Oscar Dee - Power fly [04:23]
10. The Bassmakers - Everywhere (Hardhouse mix) [04:52]
11. Dj's Miguel Serna & Ismael Lora - That's no way (Klubb'ed Mix) [05:15]
12. Albades feat. Saray - You don't know [05:18]
13. Dani Fiesta - Fiesta Loca (Bump inc Mix) [05:15]
14. Akuna - Run base [04:56]
15. Bump inc - I'm the one [05:17]

log and sheetLog

Exact Audio Copy V1.0 beta 3 from 29. August 2011
EAC extraction logfile from 2. April 2014, 11:00
Dj Турист / Pump vs. Progressive House
Used drive : ASUS DRW-24B5ST Adapter: 2 ID: 0
Read mode : SecureUtilize accurate stream : YesDefeat audio cache : YesMake use of C2 pointers : No
Read offset correction : 6Overread into Lead-In and Lead-Out : NoFill up missing offset samples with silence : YesDelete leading and trailing silent blocks : NoNull samples used in CRC calculations : YesUsed interface : Native Win32 interface for Win NT & 2000
Used output format : User Defined EncoderSelected bitrate : 128 kBit/sQuality : HighAdd ID3 tag : NoCommand line compressor : C:\flac-1.3.0.exeAdditional command line options : -V -8 -T "Genre=%genre%" -T "Artist=%artist%" -T "Title=%title%" -T "Album=%albumtitle%" -T "Date=%year%" -T "Tracknumber=%tracknr%" -T "Comment=ripped by Andy aka yetiisyou" %source%
TOC of the extracted CD
Track | Start | Length | Start sector | End sector --------------------------------------------------------- 1 | 0:00.00 | 4:40.56 | 0 | 21055 2 | 4:40.56 | 4:37.67 | 21056 | 41897 3 | 9:18.48 | 4:50.40 | 41898 | 63687 4 | 14:09.13 | 5:15.46 | 63688 | 87358 5 | 19:24.59 | 5:03.12 | 87359 | 110095 6 | 24:27.71 | 5:03.12 | 110096 | 132832 7 | 29:31.08 | 5:03.12 | 132833 | 155569 8 | 34:34.20 | 5:03.12 | 155570 | 178306 9 | 39:37.32 | 4:23.50 | 178307 | 198081 10 | 44:01.07 | 4:52.06 | 198082 | 219987 11 | 48:53.13 | 5:15.60 | 219988 | 243672 12 | 54:08.73 | 5:18.71 | 243673 | 267593 13 | 59:27.69 | 5:15.59 | 267594 | 291277 14 | 64:43.53 | 4:56.58 | 291278 | 313535 15 | 69:40.36 | 5:17.51 | 313536 | 337361
Range status and errors
Selected range
Filename C:\YA\Dj Турист - Pump vs. Progressive House\Dj Турист - Pump vs. Progressive House.wav
Peak level 97.7 % Extraction speed 9.7 X Range quality 100.0 % Test CRC AD9DB9A7 Copy CRC AD9DB9A7 Copy OK
No errors occurred
AccurateRip summary
Track 1 not present in databaseTrack 2 not present in databaseTrack 3 not present in databaseTrack 4 not present in databaseTrack 5 not present in databaseTrack 6 not present in databaseTrack 7 not present in databaseTrack 8 not present in databaseTrack 9 not present in databaseTrack 10 not present in databaseTrack 11 not present in databaseTrack 12 not present in databaseTrack 13 not present in databaseTrack 14 not present in databaseTrack 15 not present in database
None of the tracks are present in the AccurateRip database
End of status report
---- CUETools DB Plugin V2.1.3
[CTDB TOCID: jRJ7bd2OJBI6eMvxFm.P_WgFYaE-] disk not present in database, Submit result: jRJ7bd2OJBI6eMvxFm.P_WgFYaE- has been uploaded
==== Log checksum 5954A322C37FF97A0BB30CFF630F1DCD252CA89DFBBB66914CF6863E6BDF62A2 ====

[JHCD-08] - 2003 - VA - Jutonish Pump vs Progressive House Vol 8

Жанр: Progressive House, Pumping House, Hard House
Продолжительность: 01:18:42
Треклист:
01. T Comissi - Porca Miseria (4:34)
02. Urbano - Come On Up (5:10)
03. T Comissi - Va Benne Cosi (3:53)
04. DJ Lara - Big Shit (3:52)
05. DJ Borr X - Energy (6:02)
06. DJ DBC - That 2002 (4:44)
07. Shinobi - This Is The Real Thing (5:42)
08. DJ DBC - Detective Hollywod (2:51)
09. DJ Ray - Music (4:18)
10. DJ James Bond - Moonbreaker (3:01)
11. Anto V3.0 - Blow (5:36)
12. Head Horny's - Everybody In The Place (4:19)
13. Alan Thompson - It's Up 2 U (4:58)
14. Rocksteady - Cheque Dis Out (5:41)
15. Omatik - Dynamic System (3:57)
16. Aniki-S - Rock This (5:57)
17. Abel Ramos - One More (4:07)

Лог создания рипа

Exact Audio Copy V1.0 beta 3 from 29. August 2011
EAC extraction logfile from 29. January 2013, 0:06
Various / Jutonish Pump vs Progressive House Vol 8
Used drive : MATSHITADVD-R UJ-8A8 Adapter: 1 ID: 0
Read mode : SecureUtilize accurate stream : YesDefeat audio cache : YesMake use of C2 pointers : No
Read offset correction : 102Overread into Lead-In and Lead-Out : NoFill up missing offset samples with silence : YesDelete leading and trailing silent blocks : NoNull samples used in CRC calculations : YesUsed interface : Native Win32 interface for Win NT & 2000
Used output format : User Defined EncoderSelected bitrate : 768 kBit/sQuality : HighAdd ID3 tag : NoCommand line compressor : C:\Program Files (x86)\Exact Audio Copy\FLAC\FLAC.EXEAdditional command line options : -V -8 -T "Genre=%genre%" -T "Artist=%artist%" -T "Title=%title%" -T "Album=%albumtitle%" -T "Date=%year%" -T "Tracknumber=%tracknr%" -T "Comment=%comment%" %source%
TOC of the extracted CD
Track | Start | Length | Start sector | End sector --------------------------------------------------------- 1 | 0:00.00 | 4:34.10 | 0 | 20559 2 | 4:34.10 | 5:10.37 | 20560 | 43846 3 | 9:44.47 | 3:53.01 | 43847 | 61322 4 | 13:37.48 | 3:52.59 | 61323 | 78781 5 | 17:30.32 | 6:02.23 | 78782 | 105954 6 | 23:32.55 | 4:44.46 | 105955 | 127300 7 | 28:17.26 | 5:42.61 | 127301 | 153011 8 | 34:00.12 | 2:51.34 | 153012 | 165870 9 | 36:51.46 | 4:18.71 | 165871 | 185291 10 | 41:10.42 | 3:01.27 | 185292 | 198893 11 | 44:11.69 | 5:36.69 | 198894 | 224162 12 | 49:48.63 | 4:19.20 | 224163 | 243607 13 | 54:08.08 | 4:58.23 | 243608 | 265980 14 | 59:06.31 | 5:41.03 | 265981 | 291558 15 | 64:47.34 | 3:57.40 | 291559 | 309373 16 | 68:44.74 | 5:58.03 | 309374 | 336226 17 | 74:43.02 | 4:07.29 | 336227 | 354780
Range status and errors
Selected range
Filename C:\Users\Евгений\Music\Грабер\Various - Jutonish Pump vs Progressive House Vol 8.wav
Peak level 98.8 % Extraction speed 2.9 X Range quality 100.0 % Test CRC D4363594 Copy CRC D4363594 Copy OK
No errors occurred
AccurateRip summary
Track 1 not present in databaseTrack 2 not present in databaseTrack 3 not present in databaseTrack 4 not present in databaseTrack 5 not present in databaseTrack 6 not present in databaseTrack 7 not present in databaseTrack 8 not present in databaseTrack 9 not present in databaseTrack 10 not present in databaseTrack 11 not present in databaseTrack 12 not present in databaseTrack 13 not present in databaseTrack 14 not present in databaseTrack 15 not present in databaseTrack 16 not present in databaseTrack 17 not present in database
None of the tracks are present in the AccurateRip database
End of status report
==== Log checksum F76CED8FCD2EE31124ACA3AA07E7AC3660536C6F89CEAE1D02473DB046A53F0A ====

[JHCD-VOL.9] - 2003 - VA - Jutonish Pump vs Progressive House Vol 9

Жанр: Progressive House, Pumping House, Hard Bass
Продолжительность: 01:13:58
Треклист:
01. Ladoratorium - Таблетка ч. 2 (6:15)
02. Никифоровна - Шишки (DJ Nemets Mix) (5:21)
03. DJ Nements - To Be Or On Toby (4:03)
04. Spectra - Fire (3:42)
05. DJ Nemets vs. Sonic Mine - No New Style 2003 (5:45)
06. DJ Snat - Crazy Dance (DJ Nemets Mix) (6:03)
07. DJ Nemets - Welcome To Ibiza (DJ Sly Mix) (4:00)
08. DJ Sly - Taking Off Your Roof (3:43)
09. Sonic Mine - Get On Down And Party (4:56)
10. DJ Blade - You Got To Be There (4:06)
11. Sonic Mine - Put Your Hands Up (4:03)
12. Replicator - Egmitions (4:00)
13. Replicator - I - Net Pormo (Expressions Mix) (4:11)
14. DJ Snat - Jutonish, Go! (7:07)
15. XS Project - Turn It Up (4:03)
16. Replicator - Bomb (2:40)

Лог создания рипа

Exact Audio Copy V1.0 beta 3 from 29. August 2011
EAC extraction logfile from 29. January 2013, 1:25
Various / Jutonish Pump vs Progressive House Vol 9
Used drive : MATSHITADVD-R UJ-8A8 Adapter: 1 ID: 0
Read mode : SecureUtilize accurate stream : YesDefeat audio cache : YesMake use of C2 pointers : No
Read offset correction : 102Overread into Lead-In and Lead-Out : NoFill up missing offset samples with silence : YesDelete leading and trailing silent blocks : NoNull samples used in CRC calculations : YesUsed interface : Native Win32 interface for Win NT & 2000
Used output format : User Defined EncoderSelected bitrate : 768 kBit/sQuality : HighAdd ID3 tag : NoCommand line compressor : C:\Program Files (x86)\Exact Audio Copy\FLAC\FLAC.EXEAdditional command line options : -V -8 -T "Genre=%genre%" -T "Artist=%artist%" -T "Title=%title%" -T "Album=%albumtitle%" -T "Date=%year%" -T "Tracknumber=%tracknr%" -T "Comment=%comment%" %source%
TOC of the extracted CD
Track | Start | Length | Start sector | End sector --------------------------------------------------------- 1 | 0:00.00 | 6:15.06 | 0 | 28130 2 | 6:15.06 | 5:21.06 | 28131 | 52211 3 | 11:36.12 | 4:03.19 | 52212 | 70455 4 | 15:39.31 | 3:42.12 | 70456 | 87117 5 | 19:21.43 | 5:45.29 | 87118 | 113021 6 | 25:06.72 | 6:03.20 | 113022 | 140266 7 | 31:10.17 | 3:59.74 | 140267 | 158265 8 | 35:10.16 | 3:43.57 | 158266 | 175047 9 | 38:53.73 | 4:56.57 | 175048 | 197304 10 | 43:50.55 | 4:06.37 | 197305 | 215791 11 | 47:57.17 | 4:03.19 | 215792 | 234035 12 | 52:00.36 | 4:00.01 | 234036 | 252036 13 | 56:00.37 | 4:11.25 | 252037 | 270886 14 | 60:11.62 | 7:07.41 | 270887 | 302952 15 | 67:19.28 | 4:03.49 | 302953 | 321226 16 | 71:23.02 | 2:40.48 | 321227 | 333274
Range status and errors
Selected range
Filename C:\Users\Евгений\Music\Грабер\Various - Jutonish Pump vs Progressive House Vol 9.wav
Peak level 99.9 % Extraction speed 2.7 X Range quality 99.9 % Test CRC 64873240 Copy CRC 64873240 Copy OK
No errors occurred
AccurateRip summary
Track 1 not present in databaseTrack 2 not present in databaseTrack 3 not present in databaseTrack 4 not present in databaseTrack 5 not present in databaseTrack 6 not present in databaseTrack 7 not present in databaseTrack 8 not present in databaseTrack 9 not present in databaseTrack 10 not present in databaseTrack 11 not present in databaseTrack 12 not present in databaseTrack 13 not present in databaseTrack 14 not present in databaseTrack 15 not present in databaseTrack 16 not present in database
None of the tracks are present in the AccurateRip database
End of status report
==== Log checksum F1E09168E28FB57CE4399B02422BA3FEADB090D8A314B105F64000F2B1D4C523 ====

[JHCD-VOL.10] - 2003 - VA - Jutonish Pump vs Progressive House Vol 10

Жанр: Progressive House, Pumping House, Speed Garage
Продолжительность: 01:12:12
Треклист:
01. D.E.M.O.N. - Check Out (4:32)
02. DJ Nemets & Atomohot - Lover (5:29)
03. The Matrix - P.T.I. (KlubbMastaz Remix) (5:53)
04. Interphace - Dr. Feelgood (KlubbMastaz Remix) (4:17)
05. Sergio Torcal - The Rock (4:41)
06. DJ Raul Soto & Jaime Jimeno - Let's Pumpin (5:07)
07. Psionic - Let Me Hear The DJ (Pump Mix) (4:28)
08. Psionic - Repeat (Pump Mix) (4:35)
09. Lucky Loops - Boom Da Beat (5:32)
10. Project Probe pres. DJ Stream - Serious Sound (DJ Shredder Hard Mix) (5:32)
11. XS Project - Что ты хочешь? (2:52)
12. Sonic Mine - Speed Me Up (5:05)
13. Jutonish presents Psionic - To Dance (4:06)
14. Sonic Mine - Clap Your Hands Up (4:35)
15. KlubbMastaz - Screw! (5:28)

Лог создания рипа

Exact Audio Copy V1.0 beta 3 from 29. August 2011
EAC extraction logfile from 29. January 2013, 23:48
Various / Jutonish Pump vs Progressive House Vol 10
Used drive : MATSHITADVD-R UJ-8A8 Adapter: 1 ID: 0
Read mode : SecureUtilize accurate stream : YesDefeat audio cache : YesMake use of C2 pointers : No
Read offset correction : 102Overread into Lead-In and Lead-Out : NoFill up missing offset samples with silence : YesDelete leading and trailing silent blocks : NoNull samples used in CRC calculations : YesUsed interface : Native Win32 interface for Win NT & 2000
Used output format : User Defined EncoderSelected bitrate : 768 kBit/sQuality : HighAdd ID3 tag : NoCommand line compressor : C:\Program Files (x86)\Exact Audio Copy\FLAC\FLAC.EXEAdditional command line options : -V -8 -T "Genre=%genre%" -T "Artist=%artist%" -T "Title=%title%" -T "Album=%albumtitle%" -T "Date=%year%" -T "Tracknumber=%tracknr%" -T "Comment=%comment%" %source%
TOC of the extracted CD
Track | Start | Length | Start sector | End sector --------------------------------------------------------- 1 | 0:00.00 | 4:32.63 | 0 | 20462 2 | 4:32.63 | 5:29.45 | 20463 | 45182 3 | 10:02.33 | 5:53.45 | 45183 | 71702 4 | 15:56.03 | 4:17.45 | 71703 | 91022 5 | 20:13.48 | 4:41.44 | 91023 | 112141 6 | 24:55.17 | 5:07.17 | 112142 | 135183 7 | 30:02.34 | 4:28.62 | 135184 | 155345 8 | 34:31.21 | 4:35.15 | 155346 | 175985 9 | 39:06.36 | 5:32.51 | 175986 | 200936 10 | 44:39.12 | 5:32.55 | 200937 | 225891 11 | 50:11.67 | 2:52.60 | 225892 | 238851 12 | 53:04.52 | 5:05.45 | 238852 | 261771 13 | 58:10.22 | 4:06.31 | 261772 | 280252 14 | 62:16.53 | 4:35.14 | 280253 | 300891 15 | 66:51.67 | 5:29.08 | 300892 | 325574
Range status and errors
Selected range
Filename C:\Users\Евгений\Music\Грабер\Various - Jutonish Pump vs Progressive House Vol 10.wav
Peak level 99.9 % Extraction speed 5.3 X Range quality 100.0 % Test CRC 622E6A5C Copy CRC 622E6A5C Copy OK
No errors occurred
AccurateRip summary
Track 1 not present in databaseTrack 2 not present in databaseTrack 3 not present in databaseTrack 4 not present in databaseTrack 5 not present in databaseTrack 6 not present in databaseTrack 7 not present in databaseTrack 8 not present in databaseTrack 9 not present in databaseTrack 10 not present in databaseTrack 11 not present in databaseTrack 12 not present in databaseTrack 13 not present in databaseTrack 14 not present in databaseTrack 15 not present in database
None of the tracks are present in the AccurateRip database
End of status report
==== Log checksum EAAED7067A4854FCAC2713F0BA248B863B5F17E5E19BEBEFE17AF6A25B38A863 ====

[JHCD-VOL.11] - 2004 - VA - Jutonish Pump vs Progressive House Vol.11

Жанр: Pumping House, Progressive House, Speed Garage
Продолжительность: 01:17:50
Треклист:
01. DJ Reflex - Speedy Garage (4:47)
02. DJ Nemets - 7-40 (5:10)
03. DJ Nils - Pump Da Baseline (3:45)
04. Generator - Feel Da Beat (2:39)
05. DJ Nils - Keep Rockin (6:05)
06. Laboratorium - Колбасер 2004 (5:33)
07. DJ Slimoff - Show Me (Feelings Club Mix) (4:08)
08. DJ Nemets & DJ Slider - Dont Stop This (4:09)
09. Psionic - Rock The Party (5:23)
10. DJ Sly - 4ever (3:51)
11. DJ Snat - Symphony Kolbasers (5:39)
12. Scream Poison - Bass Keep Pumpin (3:58)
13. XS Project - Расколбаzz (3:02)
14. Project Probe - Rhythm & Sound (3:42)
15. Sonic Mine - Clap On To Me (4:47)
16. Generator - Rhythm Master (4:08)
17. Generator - Switch (3:56)
18. XS Project - God Of House (3:08)

Лог создания рипа

Exact Audio Copy V1.1 from 23. June 2015
EAC extraction logfile from 20. October 2015, 15:50
mixed by DJ Nemets / Jutonish II
Used drive : TSSTcorpCDDVDW TS-L633C Adapter: 1 ID: 0
Read mode : SecureUtilize accurate stream : YesDefeat audio cache : YesMake use of C2 pointers : No
Read offset correction : 6Overread into Lead-In and Lead-Out : NoFill up missing offset samples with silence : YesDelete leading and trailing silent blocks : NoNull samples used in CRC calculations : YesUsed interface : Native Win32 interface for Win NT & 2000
Used output format : User Defined EncoderSelected bitrate : 128 kBit/sQuality : HighAdd ID3 tag : NoCommand line compressor : C:\Exact Audio Copy\Flac\flac.exeAdditional command line options : -V -8 -T "Date=%year%" -T "COMMENT=ripped by Andy aka yetiisyou" -T "Genre=%genre%" %source%
TOC of the extracted CD
Track | Start | Length | Start sector | End sector --------------------------------------------------------- 1 | 0:00.00 | 4:47.28 | 0 | 21552 2 | 4:47.28 | 5:10.25 | 21553 | 44827 3 | 9:57.53 | 3:45.23 | 44828 | 61725 4 | 13:43.01 | 2:40.00 | 61726 | 73725 5 | 16:23.01 | 6:05.53 | 73726 | 101153 6 | 22:28.54 | 5:33.05 | 101154 | 126133 7 | 28:01.59 | 4:08.13 | 126134 | 144746 8 | 32:09.72 | 4:09.59 | 144747 | 163480 9 | 36:19.56 | 5:23.19 | 163481 | 187724 10 | 41:43.00 | 3:51.65 | 187725 | 205114 11 | 45:34.65 | 5:39.44 | 205115 | 230583 12 | 51:14.34 | 3:58.27 | 230584 | 248460 13 | 55:12.61 | 3:02.64 | 248461 | 262174 14 | 58:15.50 | 3:42.03 | 262175 | 278827 15 | 61:57.53 | 4:47.14 | 278828 | 300366 16 | 66:44.67 | 4:08.12 | 300367 | 318978 17 | 70:53.04 | 3:56.55 | 318979 | 336733 18 | 74:49.59 | 3:08.45 | 336734 | 350878
Range status and errors
Selected range
Filename C:\!Ripped by Andy aka yetiisyou\mixed by DJ Nemets - Jutonish 11.wav
Peak level 99.9 % Extraction speed 4.8 X Range quality 100.0 % Test CRC 6098DBFD Copy CRC 6098DBFD Copy OK
No errors occurred
AccurateRip summary
Track 1 not present in databaseTrack 2 not present in databaseTrack 3 not present in databaseTrack 4 not present in databaseTrack 5 not present in databaseTrack 6 not present in databaseTrack 7 not present in databaseTrack 8 not present in databaseTrack 9 not present in databaseTrack 10 not present in databaseTrack 11 not present in databaseTrack 12 not present in databaseTrack 13 not present in databaseTrack 14 not present in databaseTrack 15 not present in databaseTrack 16 not present in databaseTrack 17 not present in databaseTrack 18 not present in database
None of the tracks are present in the AccurateRip database
End of status report
---- CUETools DB Plugin V2.1.6
[CTDB TOCID: 19IL2aAHqFgXBpXMc45kAE62464-] disk not present in databaseSubmit result: 19IL2aAHqFgXBpXMc45kAE62464- has been uploaded
==== Log checksum 7C336B232FBD8D76DC1F6CE5F68E8611CC2BAB89C00A36BFEDC7BC883B6E237B ====

[JHCD-BEST] - 2003 - VA - Jutonish Best Vol 1

Жанр: Progressive House, Pumping House
Продолжительность: 01:19:56
Треклист:
01. Promo - It's Not Over (3:56)
02. Head Horny's - To The Bass (3:27)
03. Clubjock - Fee-Lin (4:12)
04. Club Robbers - Search To The Ball (3:42)
05. DJ's Of The Planet - Drumboard (2:56)
06. Futura - You Got A Girl (3:08)
07. Alex K - Snake It Up (3:29)
08. Maxi Paul - Tic Tuc Tac (2:22)
09. DJ Nrgize - Funky Beat 2001 (3:58)
10. Dos Sombreros - Vacasiones (5:19)
11. DJ Tomzen - Check This Out (5:11)
12. Maxi Paul - Do What You Wanna Do (4:45)
13. Mass Medium - Mindblower (3:43)
14. DJ Chase - Chase Is One (4:45)
15. Fascinator - Here We Go (5:41)
16. DJ Nemets - Welcome To Ibiza (4:32)
17. House Headz - Bells (4:05)
18. Snat - Don't Stop (5:35)
19. XS Project - Pusher (5:10)

Лог создания рипа

Exact Audio Copy V1.0 beta 3 from 29. August 2011
EAC extraction logfile from 9. February 2013, 18:54
Various / Jutonish Best Vol 1
Used drive : MATSHITADVD-R UJ-8A8 Adapter: 1 ID: 0
Read mode : SecureUtilize accurate stream : YesDefeat audio cache : YesMake use of C2 pointers : No
Read offset correction : 102Overread into Lead-In and Lead-Out : NoFill up missing offset samples with silence : YesDelete leading and trailing silent blocks : NoNull samples used in CRC calculations : YesUsed interface : Native Win32 interface for Win NT & 2000
Used output format : User Defined EncoderSelected bitrate : 768 kBit/sQuality : HighAdd ID3 tag : NoCommand line compressor : C:\Program Files (x86)\Exact Audio Copy\FLAC\FLAC.EXEAdditional command line options : -V -8 -T "Genre=%genre%" -T "Artist=%artist%" -T "Title=%title%" -T "Album=%albumtitle%" -T "Date=%year%" -T "Tracknumber=%tracknr%" -T "Comment=%comment%" %source%
TOC of the extracted CD
Track | Start | Length | Start sector | End sector --------------------------------------------------------- 1 | 0:00.00 | 3:56.36 | 0 | 17735 2 | 3:56.36 | 3:27.40 | 17736 | 33300 3 | 7:24.01 | 4:12.71 | 33301 | 52271 4 | 11:36.72 | 3:42.15 | 52272 | 68936 5 | 15:19.12 | 2:56.60 | 68937 | 82196 6 | 18:15.72 | 3:08.31 | 82197 | 96327 7 | 21:24.28 | 3:29.45 | 96328 | 112047 8 | 24:53.73 | 2:22.70 | 112048 | 122767 9 | 27:16.68 | 3:58.63 | 122768 | 140680 10 | 31:15.56 | 5:19.20 | 140681 | 164625 11 | 36:35.01 | 5:11.65 | 164626 | 188015 12 | 41:46.66 | 4:45.54 | 188016 | 209444 13 | 46:32.45 | 3:43.52 | 209445 | 226221 14 | 50:16.22 | 4:45.15 | 226222 | 247611 15 | 55:01.37 | 5:41.63 | 247612 | 273249 16 | 60:43.25 | 4:32.10 | 273250 | 293659 17 | 65:15.35 | 4:05.62 | 293660 | 312096 18 | 69:21.22 | 5:35.70 | 312097 | 337291 19 | 74:57.17 | 5:10.25 | 337292 | 360566
Range status and errors
Selected range
Filename C:\Users\Евгений\Music\Грабер\Various - Jutonish Best Vol 1.wav
Peak level 99.2 % Extraction speed 2.8 X Range quality 100.0 % Test CRC F37F6819 Copy CRC F37F6819 Copy OK
No errors occurred
AccurateRip summary
Track 1 not present in databaseTrack 2 not present in databaseTrack 3 not present in databaseTrack 4 not present in databaseTrack 5 not present in databaseTrack 6 not present in databaseTrack 7 not present in databaseTrack 8 not present in databaseTrack 9 not present in databaseTrack 10 not present in databaseTrack 11 not present in databaseTrack 12 not present in databaseTrack 13 not present in databaseTrack 14 not present in databaseTrack 15 not present in databaseTrack 16 not present in databaseTrack 17 not present in databaseTrack 18 not present in databaseTrack 19 not present in database
None of the tracks are present in the AccurateRip database
End of status report
==== Log checksum 0A4045FBBC2008EFC0CFDA62E5577D2A701282B299B6CC0CD647F8F5E09FA796 ====

[JHDD-3] - 2003 - VA - DJ Indie Cold - In Dark We Trust

Жанр: Tribal House, Breaks
Продолжительность: 01:19:52
Треклист:
01. Jutonish - Intro (0:13)
02. JR Duffer - The Sunrising (3:53)
03. Luke Chable - Eat Static (4:21)
04. Ben Camp - Peyote (Dub) (5:20)
05. Cm607 - Timeport (Tribal Mix) (4:32)
06. Chemical Soldiers - Beautiful People (Sidechained Remix) (5:34)
07. Castelli feat. Chus & Ceballos - Quimera (Dub) (6:20)
08. DJ Дон - Ritmo Metabolismo (7:18)
09. ASAN - 1969 (Ben Grassini Dub) (1:41)
10. Dylan Rhymes - Musika (Original Mix) (4:57)
11. Helpass - Reviver (Hellpass Breaks 2003 Mix) (5:19)
12. Realm - Ion (Original Mix) (4:54)
13. Jono Fernandez - Colours Of Conscience (Fretwell Remix) (5:27)
14. Accorsi And Bassetti - Until The End (Long Flight Mix) (5:49)
15. Vision And Canedy - We Love Sunday (4:21)
16. Minilogue - Join The Minicab (Original Mix) (4:58)
17. Ballroom - Lullaby (Marc O'Tool Dub) (4:55)

Лог создания рипа

Exact Audio Copy V1.0 beta 3 from 29. August 2011
EAC extraction logfile from 4. July 2013, 21:14
Various / Dj Indie Cold - In Dark We Trust
Used drive : MATSHITADVD-R UJ-8A8 Adapter: 1 ID: 0
Read mode : SecureUtilize accurate stream : YesDefeat audio cache : YesMake use of C2 pointers : No
Read offset correction : 102Overread into Lead-In and Lead-Out : NoFill up missing offset samples with silence : YesDelete leading and trailing silent blocks : NoNull samples used in CRC calculations : YesUsed interface : Native Win32 interface for Win NT & 2000
Used output format : User Defined EncoderSelected bitrate : 128 kBit/sQuality : HighAdd ID3 tag : NoCommand line compressor : C:\Program Files (x86)\Exact Audio Copy\Flac\flac.exeAdditional command line options : -V -8 -T "Genre=%genre%" -T "Artist=%artist%" -T "Title=%title%" -T "Album=%albumtitle%" -T "Date=%year%" -T "Tracknumber=%tracknr%" -T "Comment=%comment%" %source%
TOC of the extracted CD
Track | Start | Length | Start sector | End sector --------------------------------------------------------- 1 | 0:00.00 | 0:13.54 | 0 | 1028 2 | 0:13.54 | 3:53.14 | 1029 | 18517 3 | 4:06.68 | 4:21.27 | 18518 | 38119 4 | 8:28.20 | 5:20.17 | 38120 | 62136 5 | 13:48.37 | 4:32.47 | 62137 | 82583 6 | 18:21.09 | 5:34.47 | 82584 | 107680 7 | 23:55.56 | 6:20.08 | 107681 | 136188 8 | 30:15.64 | 7:18.21 | 136189 | 169059 9 | 37:34.10 | 1:41.59 | 169060 | 176693 10 | 39:15.69 | 4:57.71 | 176694 | 199039 11 | 44:13.65 | 5:19.63 | 199040 | 223027 12 | 49:33.53 | 4:54.44 | 223028 | 245121 13 | 54:28.22 | 5:27.36 | 245122 | 269682 14 | 59:55.58 | 5:49.07 | 269683 | 295864 15 | 65:44.65 | 4:21.58 | 295865 | 315497 16 | 70:06.48 | 4:58.15 | 315498 | 337862 17 | 75:04.63 | 4:55.16 | 337863 | 360003
Range status and errors
Selected range
Filename C:\Users\MacBook\Music\Грабер\Various - Dj Indie Cold - In Dark We Trust.wav
Peak level 100.0 % Extraction speed 5.2 X Range quality 99.9 % Test CRC 97BE5958 Copy CRC 97BE5958 Copy OK
No errors occurred
AccurateRip summary
Track 1 not present in databaseTrack 2 not present in databaseTrack 3 not present in databaseTrack 4 not present in databaseTrack 5 not present in databaseTrack 6 not present in databaseTrack 7 not present in databaseTrack 8 not present in databaseTrack 9 not present in databaseTrack 10 not present in databaseTrack 11 not present in databaseTrack 12 not present in databaseTrack 13 not present in databaseTrack 14 not present in databaseTrack 15 not present in databaseTrack 16 not present in databaseTrack 17 not present in database
None of the tracks are present in the AccurateRip database
End of status report
==== Log checksum E13682F0C02898BA8C56CB9646B99EC0D538D45AB879E0DE26F41E2CFA349C3F ====

[JHDD-VOL.1] - 2003 - VA - DJ Дон - Breakin' On The Streets

Жанр: Breaks
Продолжительность: 01:19:58
Треклист:
01. Intro - Jutonish (0:11)
02. McMillan And Tab - Rollin' Thunder (5:45)
03. Stir Fry - Breakin' On The Streets (False Prophet Remix) (5:29)
04. Forme - Percussive Thinking (Meat Katie And Elite Force Mix) (5:29)
05. Shapeshifter - Flood (Koma & Bones Remix) (4:18)
06. Burufunk - Midnight Run (Original Mix) (4:21)
07. Bushwacka! - Break Your Face (5:15)
08. Meat Katie & Dylan Rhymes - Moist (Koma & Bones Mix) (4:50)
09. Soul Of Man - Kickback (5:58)
10. Proper Filthy Naughty - To The Beat (Original Mix) (4:32)
11. Blim - Crazy Things (5:04)
12. Smash FX - Brainkiller (EK Remix) (4:25)
13. Electracoustic - Libertease (Meat Katie Remix) (5:00)
14. Drumattic Twins - Invincible Bass (4:17)
15. Meat Katie & Dark Globe - Feel It (Original Mix) (6:05)
16. Terminalhead - How Does It Feel? (Dark Globe Remix) (3:29)
17. DJ Shadow feat. Roots Manuva - GDMFSOB (Unkle Uncensored) (5:30)

Лог создания рипа

Exact Audio Copy V1.0 beta 3 from 29. August 2011
EAC extraction logfile from 22. September 2013, 20:48
Various / Dj Дон - Breakin' On The Streets
Used drive : MATSHITADVD-R UJ-8A8 Adapter: 3 ID: 0
Read mode : SecureUtilize accurate stream : YesDefeat audio cache : YesMake use of C2 pointers : No
Read offset correction : 102Overread into Lead-In and Lead-Out : NoFill up missing offset samples with silence : YesDelete leading and trailing silent blocks : NoNull samples used in CRC calculations : YesUsed interface : Native Win32 interface for Win NT & 2000
Used output format : User Defined EncoderSelected bitrate : 128 kBit/sQuality : HighAdd ID3 tag : NoCommand line compressor : C:\Program Files (x86)\Exact Audio Copy\Flac\flac.exeAdditional command line options : -V -8 -T "Genre=%genre%" -T "Artist=%artist%" -T "Title=%title%" -T "Album=%albumtitle%" -T "Date=%year%" -T "Tracknumber=%tracknr%" -T "Comment=%comment%" %source%
TOC of the extracted CD
Track | Start | Length | Start sector | End sector --------------------------------------------------------- 1 | 0:00.00 | 0:11.40 | 0 | 864 2 | 0:11.40 | 5:45.70 | 865 | 26809 3 | 5:57.35 | 5:29.36 | 26810 | 51520 4 | 11:26.71 | 5:29.44 | 51521 | 76239 5 | 16:56.40 | 4:18.10 | 76240 | 95599 6 | 21:14.50 | 4:21.38 | 95600 | 115212 7 | 25:36.13 | 5:15.27 | 115213 | 138864 8 | 30:51.40 | 4:50.68 | 138865 | 160682 9 | 35:42.33 | 5:58.03 | 160683 | 187535 10 | 41:40.36 | 4:32.30 | 187536 | 207965 11 | 46:12.66 | 5:04.41 | 207966 | 230806 12 | 51:17.32 | 4:25.05 | 230807 | 250686 13 | 55:42.37 | 5:00.14 | 250687 | 273200 14 | 60:42.51 | 4:17.71 | 273201 | 292546 15 | 65:00.47 | 6:05.35 | 292547 | 319956 16 | 71:06.07 | 3:29.37 | 319957 | 335668 17 | 74:35.44 | 5:30.32 | 335669 | 360450
Range status and errors
Selected range
Filename C:\Users\MacBook\Music\Грабер\Various - Dj Дон - Breakin' On The Streets.wav
Peak level 100.0 % Extraction speed 5.3 X Range quality 99.9 % Test CRC BFD31450 Copy CRC BFD31450 Copy OK
No errors occurred
AccurateRip summary
Track 1 not present in databaseTrack 2 not present in databaseTrack 3 not present in databaseTrack 4 not present in databaseTrack 5 not present in databaseTrack 6 not present in databaseTrack 7 not present in databaseTrack 8 not present in databaseTrack 9 not present in databaseTrack 10 not present in databaseTrack 11 not present in databaseTrack 12 not present in databaseTrack 13 not present in databaseTrack 14 not present in databaseTrack 15 not present in databaseTrack 16 not present in databaseTrack 17 not present in database
None of the tracks are present in the AccurateRip database
End of status report
==== Log checksum 76750A2EBB82F16A1745E5B864D84633EDB102983039A78BD3A004F13ACEA5D2 ====

[JHJP-VOL.1] - 2003 - VA - Jutonish Party Vol 1

Жанр: Pumping House, Progressive House
Продолжительность: 01:19:46
Треклист:
01. DJ Tocin - Chain Reaction (6:37)
02. Alex Trackone - Rocka Village (6:25)
03. Merlin - Change Me (5:28)
04. Head Horny's & Miguel Serna - Ma Name (DJ DBC 2003 Remix) (3:22)
05. Soniko dB - GZ (DJ DBC 2003 Remix) (5:53)
06. Sergio Torcal - Bao Lady (4:37)
07. Anto V. 8.0 - Din Din Din (5:41)
08. Futura - It's My Beat (SergioTorcal Remix) (4:25)
09. DJ Shredder & DJ Svirsky - Good Vibration (Promo) (3:41)
10. IMG - Hysteria (4:50)
11. DeeJay's Klubb - Klubbmania (4:50)
12. Head Horny's & Miguel Serna - My Mony (Klubbed Mix) (5:15)
13. David Cabeza - I'm Ready (6:18)
14. Club Caviar - Speed It Up (3:59)
15. DJ Jean - Party People In Da House (4:30)
16. DJ Jean - Supersounds (3:55)

Лог создания рипа

Exact Audio Copy V1.1 from 23. June 2015
EAC extraction logfile from 23. August 2015, 18:58
VA / Jutonish Party Vol 1
Used drive : ASUS SDRW-08D2S-U Adapter: 1 ID: 0
Read mode : SecureUtilize accurate stream : YesDefeat audio cache : YesMake use of C2 pointers : No
Read offset correction : 6Overread into Lead-In and Lead-Out : NoFill up missing offset samples with silence : YesDelete leading and trailing silent blocks : NoNull samples used in CRC calculations : YesUsed interface : Native Win32 interface for Win NT & 2000
Used output format : User Defined EncoderSelected bitrate : 32 kBit/sQuality : HighAdd ID3 tag : NoCommand line compressor : C:\Exact Audio Copy [installed]\Flac\flac.exeAdditional command line options : -V -8 -T "Date=%year%" -T "COMMENT=ripped by Andy aka yetiisyou" -T "Genre=%genre%" %source%
TOC of the extracted CD
Track | Start | Length | Start sector | End sector --------------------------------------------------------- 1 | 0:00.00 | 6:37.51 | 0 | 29825 2 | 6:37.51 | 6:25.06 | 29826 | 58706 3 | 13:02.57 | 5:28.29 | 58707 | 83335 4 | 18:31.11 | 3:22.11 | 83336 | 98496 5 | 21:53.22 | 5:53.53 | 98497 | 125024 6 | 27:47.00 | 4:37.66 | 125025 | 145865 7 | 32:24.66 | 5:41.04 | 145866 | 171444 8 | 38:05.70 | 4:25.19 | 171445 | 191338 9 | 42:31.14 | 3:41.03 | 191339 | 207916 10 | 46:12.17 | 4:50.36 | 207917 | 229702 11 | 51:02.53 | 4:50.39 | 229703 | 251491 12 | 55:53.17 | 5:15.55 | 251492 | 275171 13 | 61:08.72 | 6:18.53 | 275172 | 303574 14 | 67:27.50 | 3:59.70 | 303575 | 321569 15 | 71:27.45 | 4:29.69 | 321570 | 341813 16 | 75:57.39 | 3:55.18 | 341814 | 359456
Range status and errors
Selected range
Filename E:\!Ripped by Andy aka yetiisyou\[JHJP-VOL.1] - 2003 - VA - Jutonish Party Vol 1\VA - Jutonish Party Vol 1.wav
Peak level 99.9 % Extraction speed 5.4 X Range quality 99.9 % Test CRC EC0C1B83 Copy CRC EC0C1B83 Copy OK
No errors occurred
AccurateRip summary
Track 1 not present in databaseTrack 2 not present in databaseTrack 3 not present in databaseTrack 4 not present in databaseTrack 5 not present in databaseTrack 6 not present in databaseTrack 7 not present in databaseTrack 8 not present in databaseTrack 9 not present in databaseTrack 10 not present in databaseTrack 11 not present in databaseTrack 12 not present in databaseTrack 13 not present in databaseTrack 14 not present in databaseTrack 15 not present in databaseTrack 16 not present in database
None of the tracks are present in the AccurateRip database
End of status report
---- CUETools DB Plugin V2.1.6
[CTDB TOCID: XmNfH61f8bEci5zL_zbKTMHRzh4-] disk not present in databaseSubmit result: XmNfH61f8bEci5zL_zbKTMHRzh4- has been uploaded
==== Log checksum 05664FC76A4490498238909875BB165ECA609BF3235B0895C7B573FC4903C6B3 ====

[JHJP-VOL.2] - 2003 - VA - Jutonish Party Vol 2

Жанр: Pumping House, Progressive House, Poky
Продолжительность: 01:19:40
Треклист:
01. DJ Raul Soto & DJ Jaime Jimeno - Get Up (6:13)
02. Sr Pely & David Molina - Pump Da Fun (4:38)
03. Sergio Torcal - Atenzione (5:03)
04. KDC 03 - Bass You (4:50)
05. Christian Cano - Just Feel The Beat (5:53)
06. DJ Santy & DJ Ohm - Poky Bond (5:53)
07. The Cow Soun' Vol 1 - Game Over (5:28)
08. Poky Team - The Pig Revenge (4:24)
09. Mamma Luna - To The Beat (Klubb Mix) (4:37)
10. Chocolate feat. Hector Alias - If You Wanna Party (5:02)
11. Red Nails Corp - Real Love (4:24)
12. Edu Vol 3 - Hard House Melody (4:55)
13. Red Nails Corp - Hit The Door (4:24)
14. Milk Inc. - In My Eyes (DJ DBC Remix 2003) (4:37)
15. Head Horny's - Keep It Together (DJ DBC Remix 2003) (4:26)
16. Charo Campillos - Running Away (Hardhouse Remix) (4:53)

Лог создания рипа

Exact Audio Copy V1.1 from 23. June 2015
EAC extraction logfile from 19. October 2015, 16:55
Various Artists / Jutonish Party Vol 2
Used drive : ASUS SDRW-08D2S-U Adapter: 1 ID: 0
Read mode : SecureUtilize accurate stream : YesDefeat audio cache : YesMake use of C2 pointers : No
Read offset correction : 6Overread into Lead-In and Lead-Out : NoFill up missing offset samples with silence : YesDelete leading and trailing silent blocks : NoNull samples used in CRC calculations : YesUsed interface : Native Win32 interface for Win NT & 2000
Used output format : User Defined EncoderSelected bitrate : 32 kBit/sQuality : HighAdd ID3 tag : NoCommand line compressor : C:\Exact Audio Copy [installed]\Flac\flac.exeAdditional command line options : -V -8 -T "Date=%year%" -T "COMMENT=ripped by Andy aka yetiisyou" -T "Genre=%genre%" %source%
TOC of the extracted CD
Track | Start | Length | Start sector | End sector --------------------------------------------------------- 1 | 0:00.00 | 6:13.35 | 0 | 28009 2 | 6:13.35 | 4:38.08 | 28010 | 48867 3 | 10:51.43 | 5:03.29 | 48868 | 71621 4 | 15:54.72 | 4:50.44 | 71622 | 93415 5 | 20:45.41 | 5:53.52 | 93416 | 119942 6 | 26:39.18 | 5:53.39 | 119943 | 146456 7 | 32:32.57 | 5:28.07 | 146457 | 171063 8 | 38:00.64 | 4:25.02 | 171064 | 190940 9 | 42:25.66 | 4:37.50 | 190941 | 211765 10 | 47:03.41 | 5:02.49 | 211766 | 234464 11 | 52:06.15 | 4:24.72 | 234465 | 254336 12 | 56:31.12 | 4:55.63 | 254337 | 276524 13 | 61:27.00 | 4:24.70 | 276525 | 296394 14 | 65:51.70 | 4:37.40 | 296395 | 317209 15 | 70:29.35 | 4:26.36 | 317210 | 337195 16 | 74:55.71 | 4:53.17 | 337196 | 359187
Range status and errors
Selected range
Filename E:\!Ripped by Andy aka yetiisyou\[JHJP-VOL.2] - 2003 - VA - Jutonish Party Vol 2\Various Artists - Jutonish Party Vol 2.wav
Peak level 99.9 % Extraction speed 5.4 X Range quality 100.0 % Test CRC 75A94DF2 Copy CRC 75A94DF2 Copy OK
No errors occurred
AccurateRip summary
Track 1 not present in databaseTrack 2 not present in databaseTrack 3 not present in databaseTrack 4 not present in databaseTrack 5 not present in databaseTrack 6 not present in databaseTrack 7 not present in databaseTrack 8 not present in databaseTrack 9 not present in databaseTrack 10 not present in databaseTrack 11 not present in databaseTrack 12 not present in databaseTrack 13 not present in databaseTrack 14 not present in databaseTrack 15 not present in databaseTrack 16 not present in database
None of the tracks are present in the AccurateRip database
End of status report
---- CUETools DB Plugin V2.1.6
[CTDB TOCID: o6d7ShTfOfIKj59v4ZI2tIfH5Ag-] disk not present in databaseSubmit result: o6d7ShTfOfIKj59v4ZI2tIfH5Ag- has been uploaded
==== Log checksum 1BDDA0986D758B6A36F72F5AE37DA47630052F0C32DC27EA090273C3C5F34B9A ====

[JHSG-VOL.1] - 2003 - VA - Jutonish Back To Speed Garage

Жанр: Speed Garage
Продолжительность: 01:15:10
Треклист:
01. Mr. Jack & Oliver Gosseries - Back From Havai (4:19)
02. Lisa Stansfield - The Line (Unreleased Pressure) (Loop Da Loop Downtown Dub) (4:23)
03. Mr. Nice Guy - Bassline (5:22)
04. Boston D.J.s - Move Your Body (DJ Jean & Peran Speed Garage Remix) (4:19)
05. Les Indiscretes - Expression (3:37)
06. Da Hool - Meet Her At The Love Parade (4:57)
07. Земфира - Небо Лондона (DJ Nemets Speed Garage Remix) (4:00)
08. Praga Khan - Injected With A Poison (DJ Don & Svenson's Speed Garage Mix) (4:13)
09. Bitter Sweet Symphony - Bitter Sweet Symphony (5:04)
10. Faithless - God Is A DJ (Serious Danger Remix) (3:48)
11. Groove Connection - Club Lonely (Serious Danger Mix) (5:04)
12. Shakedown - At Night (3:44)
13. Goldie featuring KRS One - Digital (Armand Van Helden's Speed Garage Mix) (5:04)
14. Godz Gift - Let The Beat Drop (4:52)
15. 187 Lockdown - Kung-Fu (4:24)
16. Double 99 - Ripgroove (2:52)
17. Serious Danger - Deeper (5:08)

Лог создания рипа

Exact Audio Copy V1.1 from 23. June 2015
EAC extraction logfile from 15. January 2016, 22:52
VA / DJ Nemets - Back To Speed Garage
Used drive : ASUS SDRW-08D2S-U Adapter: 1 ID: 0
Read mode : SecureUtilize accurate stream : YesDefeat audio cache : YesMake use of C2 pointers : No
Read offset correction : 6Overread into Lead-In and Lead-Out : NoFill up missing offset samples with silence : YesDelete leading and trailing silent blocks : NoNull samples used in CRC calculations : YesUsed interface : Native Win32 interface for Win NT & 2000
Used output format : User Defined EncoderSelected bitrate : 32 kBit/sQuality : HighAdd ID3 tag : NoCommand line compressor : C:\Exact Audio Copy [installed]\Flac\flac.exeAdditional command line options : -V -8 -T "Date=%year%" -T "COMMENT=ripped by Andy aka yetiisyou" -T "Genre=%genre%" %source%
TOC of the extracted CD
Track | Start | Length | Start sector | End sector --------------------------------------------------------- 1 | 0:00.00 | 4:19.24 | 0 | 19448 2 | 4:19.24 | 4:23.19 | 19449 | 39192 3 | 8:42.43 | 5:22.70 | 39193 | 63412 4 | 14:05.38 | 4:20.03 | 63413 | 82915 5 | 18:25.41 | 3:37.54 | 82916 | 99244 6 | 22:03.20 | 4:57.56 | 99245 | 121575 7 | 27:01.01 | 4:00.09 | 121576 | 139584 8 | 31:01.10 | 4:13.24 | 139585 | 158583 9 | 35:14.34 | 5:04.42 | 158584 | 181425 10 | 40:19.01 | 3:48.30 | 181426 | 198555 11 | 44:07.31 | 5:04.45 | 198556 | 221400 12 | 49:12.01 | 3:44.74 | 221401 | 238274 13 | 52:57.00 | 5:04.26 | 238275 | 261100 14 | 58:01.26 | 4:52.59 | 261101 | 283059 15 | 62:54.10 | 4:24.23 | 283060 | 302882 16 | 67:18.33 | 2:52.07 | 302883 | 315789 17 | 70:10.40 | 5:08.44 | 315790 | 338933
Range status and errors
Selected range
Filename E:\!Ripped by Andy aka yetiisyou\[JHSG-VOL.1] - 2003 - VA - Jutonish Back To Speed Garage\VA - DJ Nemets - Back To Speed Garage.wav
Peak level 99.8 % Extraction speed 5.2 X Range quality 100.0 % Test CRC 48A72839 Copy CRC 48A72839 Copy OK
No errors occurred
AccurateRip summary
Track 1 not present in databaseTrack 2 not present in databaseTrack 3 not present in databaseTrack 4 not present in databaseTrack 5 not present in databaseTrack 6 not present in databaseTrack 7 not present in databaseTrack 8 not present in databaseTrack 9 not present in databaseTrack 10 not present in databaseTrack 11 not present in databaseTrack 12 not present in databaseTrack 13 not present in databaseTrack 14 not present in databaseTrack 15 not present in databaseTrack 16 not present in databaseTrack 17 not present in database
None of the tracks are present in the AccurateRip database
End of status report
---- CUETools DB Plugin V2.1.6
[CTDB TOCID: IZozQFHfdgaJrzk2MbvwjB.2C9M-] disk not present in databaseSubmit result: IZozQFHfdgaJrzk2MbvwjB.2C9M- has been uploaded
==== Log checksum 33A567571C6B1EB881B49F3D8E5FD658081C0C0E767E2DC8E7A55FD6E60C9848 ====

[JHTR-VOL.1] - 2003 - VA - DJ Sasha Soul - Pafos

Жанр: House
Продолжительность: 01:10:18
Треклист:
01. Leftfield - Afro-left (Original Version) (6:53)
02. Smithmonger - Rock Steady (6:29)
03. Depeshe Mode - When I Loose My Self (Lexicon Avenue Remix) (9:49)
04. Huff & Puff - Help Me Make It (7:20)
05. Hipp-E & Tony Hewitt - Musica De La Selva (5:46)
06. Range Of Motion - What You Need (Wink Mix) (5:57)
07. Fab 4 & Robert Owens - Last Night A DJ Blew My Mind (Different Gear Remix) (5:16)
08. Firmpalast - Istambul (Lemon 8 Remix) (7:38)
09. Pure Orange - Feel Alive (Scumfrog Remix) (6:09)
10. Mory Kante - Yeke Yeke (Hardfloor Remix) (4:19)
11. Pussy Dub Foundation - Make The World Go Round (Gambafreaks Remix) (4:42)

Лог создания рипа

Exact Audio Copy V1.0 beta 3 from 29. August 2011
EAC extraction logfile from 22. September 2013, 16:45
Various / Dj Sasha Soul - Pafos
Used drive : MATSHITADVD-R UJ-8A8 Adapter: 3 ID: 0
Read mode : SecureUtilize accurate stream : YesDefeat audio cache : YesMake use of C2 pointers : No
Read offset correction : 102Overread into Lead-In and Lead-Out : NoFill up missing offset samples with silence : YesDelete leading and trailing silent blocks : NoNull samples used in CRC calculations : YesUsed interface : Native Win32 interface for Win NT & 2000
Used output format : User Defined EncoderSelected bitrate : 128 kBit/sQuality : HighAdd ID3 tag : NoCommand line compressor : C:\Program Files (x86)\Exact Audio Copy\Flac\flac.exeAdditional command line options : -V -8 -T "Genre=%genre%" -T "Artist=%artist%" -T "Title=%title%" -T "Album=%albumtitle%" -T "Date=%year%" -T "Tracknumber=%tracknr%" -T "Comment=%comment%" %source%
TOC of the extracted CD
Track | Start | Length | Start sector | End sector --------------------------------------------------------- 1 | 0:00.00 | 6:53.03 | 0 | 30977 2 | 6:53.03 | 6:29.29 | 30978 | 60181 3 | 13:22.32 | 9:49.56 | 60182 | 104412 4 | 23:12.13 | 7:20.52 | 104413 | 137464 5 | 30:32.65 | 5:46.60 | 137465 | 163474 6 | 36:19.50 | 5:57.63 | 163475 | 190312 7 | 42:17.38 | 5:16.71 | 190313 | 214083 8 | 47:34.34 | 7:38.01 | 214084 | 248434 9 | 55:12.35 | 6:09.05 | 248435 | 276114 10 | 61:21.40 | 4:19.46 | 276115 | 295585 11 | 65:41.11 | 4:42.36 | 295586 | 316771
Range status and errors
Selected range
Filename C:\Users\MacBook\Music\Грабер\Various - Dj Sasha Soul - Pafos.wav
Peak level 100.0 % Extraction speed 2.8 X Range quality 100.0 % Test CRC 698E4E52 Copy CRC 698E4E52 Copy OK
No errors occurred
AccurateRip summary
Track 1 not present in databaseTrack 2 not present in databaseTrack 3 not present in databaseTrack 4 not present in databaseTrack 5 not present in databaseTrack 6 not present in databaseTrack 7 not present in databaseTrack 8 not present in databaseTrack 9 not present in databaseTrack 10 not present in databaseTrack 11 not present in database
None of the tracks are present in the AccurateRip database
End of status report
==== Log checksum C593DDD2A94BB58AC6737B45BE6F802E25AE93E329E4712215315D22E8DE6DC8 ====

[# none] - 2003 - DJ Shade - Summer Feeling (Pafos 2)

Жанр: House
Продолжительность: 01:16:18
Треклист:
01. Track 01 (5:41)
02. Track 02 (5:26)
03. Track 03 (5:35)
04. Track 04 (5:07)
05. Track 05 (5:28)
06. Track 06 (4:44)
07. Track 07 (5:30)
08. Track 08 (3:47)
09. Track 09 (5:53)
10. Track 10 (8:41)
11. Track 11 (2:50)
12. Track 12 (4:02)
13. Track 13 (3:33)
14. Track 14 (4:15)
15. Track 15 (5:46)

Лог создания рипа

Exact Audio Copy V1.0 beta 3 from 29. August 2011
EAC extraction logfile from 3. August 2013, 19:46
Dj Shade / Summer Feeling
Used drive : MATSHITADVD-R UJ-8A8 Adapter: 2 ID: 0
Read mode : SecureUtilize accurate stream : YesDefeat audio cache : YesMake use of C2 pointers : No
Read offset correction : 102Overread into Lead-In and Lead-Out : NoFill up missing offset samples with silence : YesDelete leading and trailing silent blocks : NoNull samples used in CRC calculations : YesUsed interface : Native Win32 interface for Win NT & 2000
Used output format : User Defined EncoderSelected bitrate : 128 kBit/sQuality : HighAdd ID3 tag : NoCommand line compressor : C:\Program Files (x86)\Exact Audio Copy\Flac\flac.exeAdditional command line options : -V -8 -T "Genre=%genre%" -T "Artist=%artist%" -T "Title=%title%" -T "Album=%albumtitle%" -T "Date=%year%" -T "Tracknumber=%tracknr%" -T "Comment=%comment%" %source%
TOC of the extracted CD
Track | Start | Length | Start sector | End sector --------------------------------------------------------- 1 | 0:00.00 | 5:41.71 | 0 | 25645 2 | 5:41.71 | 5:26.16 | 25646 | 50111 3 | 11:08.12 | 5:35.26 | 50112 | 75262 4 | 16:43.38 | 5:08.00 | 75263 | 98362 5 | 21:51.38 | 5:28.02 | 98363 | 122964 6 | 27:19.40 | 4:44.41 | 122965 | 144305 7 | 32:04.06 | 5:30.58 | 144306 | 169113 8 | 37:34.64 | 3:47.45 | 169114 | 186183 9 | 41:22.34 | 5:53.58 | 186184 | 212716 10 | 47:16.17 | 8:41.44 | 212717 | 251835 11 | 55:57.61 | 2:50.30 | 251836 | 264615 12 | 58:48.16 | 4:02.03 | 264616 | 282768 13 | 62:50.19 | 3:33.43 | 282769 | 298786 14 | 66:23.62 | 4:15.60 | 298787 | 317971 15 | 70:39.47 | 5:46.36 | 317972 | 343957
Range status and errors
Selected range
Filename C:\Users\MacBook\Music\Грабер\Dj Shade - Summer Feeling.wav
Peak level 99.9 % Extraction speed 5.3 X Range quality 100.0 % Test CRC 4E304CEE Copy CRC 4E304CEE Copy OK
No errors occurred
AccurateRip summary
Track 1 not present in databaseTrack 2 not present in databaseTrack 3 not present in databaseTrack 4 not present in databaseTrack 5 not present in databaseTrack 6 not present in databaseTrack 7 not present in databaseTrack 8 not present in databaseTrack 9 not present in databaseTrack 10 not present in databaseTrack 11 not present in databaseTrack 12 not present in databaseTrack 13 not present in databaseTrack 14 not present in databaseTrack 15 not present in database
None of the tracks are present in the AccurateRip database
End of status report
==== Log checksum 4AA34058AC2D1D8A89C00C3DA358156FB039969150E0CD2F57B4744B95DC29F5 ====

[# none] - 2003 - DJ Snat - Intro Vol 1

Жанр: Pumping House, Hard Bass
Продолжительность: 01:19:53
Треклист:
01. Intro (0:54)
02. Jutonish Go (6:46)
03. 12345 (3:00)
04. Chek This Out (5:25)
05. Drama (5:50)
06. Fo The Crut (3:53)
07. Bass House (5:24)
08. Full Bass (4:32)
09. Don't Stop (5:50)
10. Open Open Mine (5:37)
11. Live Melody (5:11)
12. Crazy Dance (3:37)
13. Hey You (6:06)
14. I'm Sorry (2:34)
15. Club House (5:26)
16. Free Dogen (4:58)
17. Жирик (4:50)

Лог создания рипа

Exact Audio Copy V1.1 from 23. June 2015
EAC extraction logfile from 18. October 2015, 11:32
DJ Snat / Vol 1: Intro
Used drive : ASUS SDRW-08D2S-U Adapter: 1 ID: 0
Read mode : SecureUtilize accurate stream : YesDefeat audio cache : YesMake use of C2 pointers : No
Read offset correction : 6Overread into Lead-In and Lead-Out : NoFill up missing offset samples with silence : YesDelete leading and trailing silent blocks : NoNull samples used in CRC calculations : YesUsed interface : Native Win32 interface for Win NT & 2000
Used output format : User Defined EncoderSelected bitrate : 32 kBit/sQuality : HighAdd ID3 tag : NoCommand line compressor : C:\Exact Audio Copy [installed]\Flac\flac.exeAdditional command line options : -V -8 -T "Date=%year%" -T "COMMENT=ripped by Andy aka yetiisyou" -T "Genre=%genre%" %source%
TOC of the extracted CD
Track | Start | Length | Start sector | End sector --------------------------------------------------------- 1 | 0:00.00 | 0:54.03 | 0 | 4052 2 | 0:54.03 | 6:46.39 | 4053 | 34541 3 | 7:40.42 | 3:00.63 | 34542 | 48104 4 | 10:41.30 | 5:25.14 | 48105 | 72493 5 | 16:06.44 | 5:50.26 | 72494 | 98769 6 | 21:56.70 | 3:53.43 | 98770 | 116287 7 | 25:50.38 | 5:24.29 | 116288 | 140616 8 | 31:14.67 | 4:32.37 | 140617 | 161053 9 | 35:47.29 | 5:50.25 | 161054 | 187328 10 | 41:37.54 | 5:37.26 | 187329 | 212629 11 | 47:15.05 | 5:11.31 | 212630 | 235985 12 | 52:26.36 | 3:37.26 | 235986 | 252286 13 | 56:03.62 | 6:06.41 | 252287 | 279777 14 | 62:10.28 | 2:34.08 | 279778 | 291335 15 | 64:44.36 | 5:26.30 | 291336 | 315815 16 | 70:10.66 | 4:58.37 | 315816 | 338202 17 | 75:09.28 | 4:50.72 | 338203 | 360024
Range status and errors
Selected range
Filename E:\!Ripped by Andy aka yetiisyou\[# none] - 2003 - DJ Snat - Intro Vol 1\DJ Snat - Vol 1- Intro.wav
Peak level 96.7 % Extraction speed 5.4 X Range quality 100.0 % Test CRC 97D831DB Copy CRC 97D831DB Copy OK
No errors occurred
AccurateRip summary
Track 1 not present in databaseTrack 2 not present in databaseTrack 3 not present in databaseTrack 4 not present in databaseTrack 5 not present in databaseTrack 6 not present in databaseTrack 7 not present in databaseTrack 8 not present in databaseTrack 9 not present in databaseTrack 10 not present in databaseTrack 11 not present in databaseTrack 12 not present in databaseTrack 13 not present in databaseTrack 14 not present in databaseTrack 15 not present in databaseTrack 16 not present in databaseTrack 17 not present in database
None of the tracks are present in the AccurateRip database
End of status report
---- CUETools DB Plugin V2.1.6
[CTDB TOCID: q1CwdBD2G9cZisY0qckbwNjLOTo-] disk not present in databaseSubmit result: q1CwdBD2G9cZisY0qckbwNjLOTo- has been uploaded
==== Log checksum 92CA6CB010FA8CE1DA09472FB795F37DE183C8C58437EF60E4A5715C0A78C16B ====

[# none] - 2003 - DJ Snat - Come To The Party Vol 2

Жанр: Pumping House, Hard Bass
Продолжительность: 01:19:22
Треклист:
01. Intro (0:33)
02. Party To Night (5:02)
03. Bad (5:31)
04. Welcom (5:21)
05. Drop The Gun (4:16)
06. Chose Your Power (4:16)
07. Paradoks (4:28)
08. 1000 Years (5:45)
09. Big Gun (5:29)
10. AMK (4:32)
11. Back (4:15)
12. To Party (4:14)
13. Kirri Kirri (5:46)
14. Comon (4:03)
15. Clup You Hands (4:28)
16. Sayates (6:23)
17. Shet (5:00)

Лог создания рипа

Exact Audio Copy V1.1 from 23. June 2015
EAC extraction logfile from 19. October 2015, 23:45
DJ Snat / Vol 2: Come To The Party
Used drive : ASUS SDRW-08D2S-U Adapter: 1 ID: 0
Read mode : SecureUtilize accurate stream : YesDefeat audio cache : YesMake use of C2 pointers : No
Read offset correction : 6Overread into Lead-In and Lead-Out : NoFill up missing offset samples with silence : YesDelete leading and trailing silent blocks : NoNull samples used in CRC calculations : YesUsed interface : Native Win32 interface for Win NT & 2000
Used output format : User Defined EncoderSelected bitrate : 32 kBit/sQuality : HighAdd ID3 tag : NoCommand line compressor : C:\Exact Audio Copy [installed]\Flac\flac.exeAdditional command line options : -V -8 -T "Date=%year%" -T "COMMENT=ripped by Andy aka yetiisyou" -T "Genre=%genre%" %source%
TOC of the extracted CD
Track | Start | Length | Start sector | End sector --------------------------------------------------------- 1 | 0:00.00 | 0:33.16 | 0 | 2490 2 | 0:33.16 | 5:02.35 | 2491 | 25175 3 | 5:35.51 | 5:31.23 | 25176 | 50023 4 | 11:06.74 | 5:21.46 | 50024 | 74144 5 | 16:28.45 | 4:16.03 | 74145 | 93347 6 | 20:44.48 | 4:16.08 | 93348 | 112555 7 | 25:00.56 | 4:28.64 | 112556 | 132719 8 | 29:29.45 | 5:45.49 | 132720 | 158643 9 | 35:15.19 | 5:29.52 | 158644 | 183370 10 | 40:44.71 | 4:32.03 | 183371 | 203773 11 | 45:16.74 | 4:15.50 | 203774 | 222948 12 | 49:32.49 | 4:14.74 | 222949 | 242072 13 | 53:47.48 | 5:46.41 | 242073 | 268063 14 | 59:34.14 | 4:03.63 | 268064 | 286351 15 | 63:38.02 | 4:28.65 | 286352 | 306516 16 | 68:06.67 | 6:23.48 | 306517 | 335289 17 | 74:30.40 | 5:00.29 | 335290 | 357818
Range status and errors
Selected range
Filename E:\!Ripped by Andy aka yetiisyou\[# none] - 2003 - DJ Snat - Come To The Party Vol 2\DJ Snat - Vol 2- Come To The Party.wav
Peak level 98.9 % Extraction speed 5.4 X Range quality 100.0 % Test CRC 41B62529 Copy CRC 41B62529 Copy OK
No errors occurred
AccurateRip summary
Track 1 not present in databaseTrack 2 not present in databaseTrack 3 not present in databaseTrack 4 not present in databaseTrack 5 not present in databaseTrack 6 not present in databaseTrack 7 not present in databaseTrack 8 not present in databaseTrack 9 not present in databaseTrack 10 not present in databaseTrack 11 not present in databaseTrack 12 not present in databaseTrack 13 not present in databaseTrack 14 not present in databaseTrack 15 not present in databaseTrack 16 not present in databaseTrack 17 not present in database
None of the tracks are present in the AccurateRip database
End of status report
---- CUETools DB Plugin V2.1.6
[CTDB TOCID: 7bBquIUNcAJAaek3XIxhr7IeIs0-] disk not present in databaseSubmit result: 7bBquIUNcAJAaek3XIxhr7IeIs0- has been uploaded
==== Log checksum 5D08B3CC916106E566EEA27B50D3A37341A267F207460C490336B6DC4A382D54 ====


[torrentc.info]_t_4598652.torrent
Торрент: Зарегистрирован ·  [ 2019-02-16 17:16 ] ·  d4caf1d12f3e6a9426cc5e319b6eb730f6eb85de

604 KB

Статус: проверено
Скачан: 0 раз
Размер: 86.96 GB
Оценка: 
(Голосов: 0)
Сказали спасибо: 0  Спасибо
Похожие темы
[Профиль]    [ЛС]
Показать сообщения:    
Ответить на тему

Текущее время: Сегодня 15:05

Часовой пояс: GMT + 7



Вы не можете начинать темы
Вы не можете отвечать на сообщения
Вы не можете редактировать свои сообщения
Вы не можете удалять свои сообщения
Вы не можете голосовать в опросах
Вы не можете прикреплять файлы к сообщениям
Вы можете скачивать файлы