(Abstract Hip-Hop, Breaks, Broken Beat, Latin) [CD] Bulljun - Bulljun & El Barrio 2016 - 2006 (Japan Edition), FLAC (tracks+.cue), lossless

Ответить на тему
Статистика раздачи [Обновить пиров]
Размер:  280 MB   |    Зарегистрирован:  1 месяц 9 дней   |    Скачан:  0 раз

Полного источника не было: Никогда

 
   
 
 
 
Автор Сообщение

Кейт

Создавать темы 16-Фев-2019 12:01

[Цитировать]

Bulljun - Bulljun & El Barrio 2016
Жанр: Abstract Hip-Hop, Breaks, Broken Beat, Latin
Носитель: CD
Страна-производитель диска (релиза): Япония
Год издания: 2006
Издатель (лейбл): P-Vine Records
Номер по каталогу: PCD-23814
Аудиокодек: FLAC (*.flac)
Тип рипа: tracks+.cue
Битрейт аудио: lossless
Продолжительность: 00:52:19
Источник: fungusamungus
Наличие сканов в содержимом раздачи: нет
Треклист:
01. On the Memory Lane (New York City) (0:48)
02. Fat Morning, Central Park (3:24)
03. El Barrio Blues (5:24)
04. Theme from Full Time Play Boy (4:07)
05. Sho' Nuff (4:51)
06. Eternal Reflection (2:23)
07. Lil Mo Coke (4:25)
08. Spoony Atmosphere (2:35)
09. Another Glass of Cuban Lemonade (4:31)
10. Nite Flyte with BJ (3:18)
11. Daddy's Sex Beat #69 (4:30)
12. 4-What-U-Got (Thankful 'n' Thoughtful) (5:19)
13. Lite Function Pt.3 (6:44)

Лог создания рипа

Exact Audio Copy V1.3 from 2. September 2016
EAC extraction logfile from 15. March 2017, 23:57
Bulljun / Bulljun & El Barrio 2016
Used drive : TSSTcorpCDDVDW SH-S223Q Adapter: 1 ID: 0
Read mode : SecureUtilize accurate stream : YesDefeat audio cache : YesMake use of C2 pointers : No
Read offset correction : 6Overread into Lead-In and Lead-Out : NoFill up missing offset samples with silence : YesDelete leading and trailing silent blocks : NoNull samples used in CRC calculations : YesUsed interface : Native Win32 interface for Win NT & 2000Gap handling : Appended to previous track
Used output format : User Defined EncoderSelected bitrate : 1024 kBit/sQuality : HighAdd ID3 tag : NoCommand line compressor : C:\Program Files (x86)\Exact Audio Copy\Flac\flac.exeAdditional command line options : -8 -e -p -V -T "ARTIST=%artist%" -T "TITLE=%title%" -T "ALBUM=%albumtitle%" -T "DATE=%year%" -T "TRACKNUMBER=%tracknr%" -T "GENRE=%genre%" -T "PERFORMER=%albuminterpret%" -T "COMPOSER=%composer%" %haslyrics%--tag-from-file=LYRICS="%lyricsfile%"%haslyrics% -T "ALBUMARTIST=%albumartist%" -T "DISCNUMBER=%cdnumber%" -T "TOTALDISCS=%totalcds%" -T "TOTALTRACKS=%numtracks%" -T "COMMENT=%comment%" %source% -o %dest%
TOC of the extracted CD
Track | Start | Length | Start sector | End sector --------------------------------------------------------- 1 | 0:00.00 | 0:48.32 | 0 | 3631 2 | 0:48.32 | 3:24.08 | 3632 | 18939 3 | 4:12.40 | 5:23.55 | 18940 | 43219 4 | 9:36.20 | 4:07.11 | 43220 | 61755 5 | 13:43.31 | 4:51.24 | 61756 | 83604 6 | 18:34.55 | 2:22.53 | 83605 | 94307 7 | 20:57.33 | 4:25.10 | 94308 | 114192 8 | 25:22.43 | 2:34.68 | 114193 | 125810 9 | 27:57.36 | 4:31.23 | 125811 | 146158 10 | 32:28.59 | 3:18.19 | 146159 | 161027 11 | 35:47.03 | 4:29.40 | 161028 | 181242 12 | 40:16.43 | 5:19.36 | 181243 | 205203 13 | 45:36.04 | 6:44.09 | 205204 | 235512
Track 1
Filename E:\Dem GOOD Rips\Mein\Bulljun - 2006 - Bulljun & El Barrio 2016 [CD FLAC]\01 On The Memory Lane (New York City).wav
Pre-gap length 0:00:02.00
Peak level 100.0 % Extraction speed 0.9 X Track quality 99.7 % Test CRC 6E863A3B Copy CRC 6E863A3B Accurately ripped (confidence 2) [B880A55F] (AR v2) Copy OK
Track 2
Filename E:\Dem GOOD Rips\Mein\Bulljun - 2006 - Bulljun & El Barrio 2016 [CD FLAC]\02 Fat Morning, Central Park.wav
Peak level 100.0 % Extraction speed 2.0 X Track quality 100.0 % Test CRC DE7F7C26 Copy CRC DE7F7C26 Accurately ripped (confidence 2) [F1C72E04] (AR v2) Copy OK
Track 3
Filename E:\Dem GOOD Rips\Mein\Bulljun - 2006 - Bulljun & El Barrio 2016 [CD FLAC]\03 El Barrio Blues.wav
Pre-gap length 0:00:00.38
Peak level 100.0 % Extraction speed 2.2 X Track quality 100.0 % Test CRC 80B45D40 Copy CRC 80B45D40 Accurately ripped (confidence 2) [C8FB9F31] (AR v2) Copy OK
Track 4
Filename E:\Dem GOOD Rips\Mein\Bulljun - 2006 - Bulljun & El Barrio 2016 [CD FLAC]\04 Theme From Full Time Play Boy.wav
Pre-gap length 0:00:02.59
Peak level 100.0 % Extraction speed 2.1 X Track quality 100.0 % Test CRC B7942FC8 Copy CRC B7942FC8 Accurately ripped (confidence 2) [A8518657] (AR v2) Copy OK
Track 5
Filename E:\Dem GOOD Rips\Mein\Bulljun - 2006 - Bulljun & El Barrio 2016 [CD FLAC]\05 Sho' Nuff.wav
Peak level 100.0 % Extraction speed 2.2 X Track quality 100.0 % Test CRC 87185966 Copy CRC 87185966 Accurately ripped (confidence 2) [F6867F25] (AR v2) Copy OK
Track 6
Filename E:\Dem GOOD Rips\Mein\Bulljun - 2006 - Bulljun & El Barrio 2016 [CD FLAC]\06 Eternal Reflection.wav
Peak level 94.8 % Extraction speed 1.9 X Track quality 100.0 % Test CRC C01CE3AE Copy CRC C01CE3AE Accurately ripped (confidence 1) [2236FF47] (AR v2) Copy OK
Track 7
Filename E:\Dem GOOD Rips\Mein\Bulljun - 2006 - Bulljun & El Barrio 2016 [CD FLAC]\07 Lil Mo Coke.wav
Pre-gap length 0:00:00.72
Peak level 99.8 % Extraction speed 2.1 X Track quality 100.0 % Test CRC 4C906534 Copy CRC 4C906534 Accurately ripped (confidence 1) [504B25B6] (AR v2) Copy OK
Track 8
Filename E:\Dem GOOD Rips\Mein\Bulljun - 2006 - Bulljun & El Barrio 2016 [CD FLAC]\08 Spoony Atmosphere.wav
Pre-gap length 0:00:01.16
Peak level 81.1 % Extraction speed 1.9 X Track quality 100.0 % Test CRC 502B254D Copy CRC 502B254D Accurately ripped (confidence 1) [B834A5F7] (AR v2) Copy OK
Track 9
Filename E:\Dem GOOD Rips\Mein\Bulljun - 2006 - Bulljun & El Barrio 2016 [CD FLAC]\09 Another Glass Of Cuban Lemonade.wav
Pre-gap length 0:00:00.44
Peak level 100.0 % Extraction speed 2.1 X Track quality 100.0 % Test CRC 49200FD2 Copy CRC 49200FD2 Accurately ripped (confidence 2) [D1C1179C] (AR v2) Copy OK
Track 10
Filename E:\Dem GOOD Rips\Mein\Bulljun - 2006 - Bulljun & El Barrio 2016 [CD FLAC]\10 Nite Flyte With BJ.wav
Peak level 100.0 % Extraction speed 2.0 X Track quality 100.0 % Test CRC 36DCD677 Copy CRC 36DCD677 Accurately ripped (confidence 2) [827E20FA] (AR v2) Copy OK
Track 11
Filename E:\Dem GOOD Rips\Mein\Bulljun - 2006 - Bulljun & El Barrio 2016 [CD FLAC]\11 Daddy's Sex Beat #69.wav
Pre-gap length 0:00:03.36
Peak level 100.0 % Extraction speed 2.1 X Track quality 100.0 % Test CRC 07C89754 Copy CRC 07C89754 Accurately ripped (confidence 2) [BF47580F] (AR v2) Copy OK
Track 12
Filename E:\Dem GOOD Rips\Mein\Bulljun - 2006 - Bulljun & El Barrio 2016 [CD FLAC]\12 4-What-U-Got (Thankful 'N' Thoughtful).wav
Pre-gap length 0:00:00.73
Peak level 89.0 % Extraction speed 2.2 X Track quality 100.0 % Test CRC 8D623632 Copy CRC 8D623632 Accurately ripped (confidence 2) [9A2D9302] (AR v2) Copy OK
Track 13
Filename E:\Dem GOOD Rips\Mein\Bulljun - 2006 - Bulljun & El Barrio 2016 [CD FLAC]\13 Lite Function Pt. 3.wav
Pre-gap length 0:00:03.74
Peak level 99.8 % Extraction speed 2.2 X Track quality 100.0 % Test CRC A3932969 Copy CRC A3932969 Accurately ripped (confidence 2) [66682831] (AR v2) Copy OK
All tracks accurately ripped
No errors occurred
End of status report
---- CUETools DB Plugin V2.1.6
[CTDB TOCID: r12xDTeUkjaT8_i7jane8oNu1TU-] disk not present in databaseSubmit result: r12xDTeUkjaT8_i7jane8oNu1TU- has been uploaded
==== Log checksum EB0DB6B4866D40F0A8B6CCE400829256314BAF948D44CB5A8A8487DCA29F02AF ====

Содержание индексной карты (.CUE)

REM GENRE Hip-HopREM DATE 2006REM DISCID B40C440DREM COMMENT "ExactAudioCopy v1.3"CATALOG 4995879238141PERFORMER "Bulljun"TITLE "Bulljun & El Barrio 2016"FILE "01 - On the Memory Lane (New York City).wav" WAVE TRACK 01 AUDIO TITLE "On the Memory Lane (New York City)" PERFORMER "Bulljun" ISRC JPUE00601061 INDEX 01 00:00:00FILE "02 - Fat Morning, Central Park.wav" WAVE TRACK 02 AUDIO TITLE "Fat Morning, Central Park" PERFORMER "Bulljun" ISRC JPUE00601062 INDEX 01 00:00:00 TRACK 03 AUDIO TITLE "El Barrio Blues" PERFORMER "Bulljun" ISRC JPUE00601063 INDEX 00 03:23:45FILE "03 - El Barrio Blues.wav" WAVE INDEX 01 00:00:00 TRACK 04 AUDIO TITLE "Theme from Full Time Play Boy" PERFORMER "Bulljun" ISRC JPUE00601064 INDEX 00 05:20:71FILE "04 - Theme from Full Time Play Boy.wav" WAVE INDEX 01 00:00:00FILE "05 - Sho' Nuff.wav" WAVE TRACK 05 AUDIO TITLE "Sho' Nuff" PERFORMER "Bulljun" ISRC JPUE00601065 INDEX 01 00:00:00FILE "06 - Eternal Reflection.wav" WAVE TRACK 06 AUDIO TITLE "Eternal Reflection" PERFORMER "Bulljun" ISRC JPUE00601066 INDEX 01 00:00:00 TRACK 07 AUDIO TITLE "Lil Mo Coke" PERFORMER "Bulljun" ISRC JPUE00601067 INDEX 00 02:21:56FILE "07 - Lil Mo Coke.wav" WAVE INDEX 01 00:00:00 TRACK 08 AUDIO TITLE "Spoony Atmosphere" PERFORMER "Bulljun" ISRC JPUE00601068 INDEX 00 04:23:69FILE "08 - Spoony Atmosphere.wav" WAVE INDEX 01 00:00:00 TRACK 09 AUDIO TITLE "Another Glass of Cuban Lemonade" PERFORMER "Bulljun" ISRC JPUE00601069 INDEX 00 02:34:24FILE "09 - Another Glass of Cuban Lemonade.wav" WAVE INDEX 01 00:00:00FILE "10 - Nite Flyte with BJ.wav" WAVE TRACK 10 AUDIO TITLE "Nite Flyte with BJ" PERFORMER "Bulljun" ISRC JPUE00601070 INDEX 01 00:00:00 TRACK 11 AUDIO TITLE "Daddy's Sex Beat No.69" PERFORMER "Bulljun" ISRC JPUE00601071 INDEX 00 03:14:58FILE "11 - Daddy's Sex Beat No.69.wav" WAVE INDEX 01 00:00:00 TRACK 12 AUDIO TITLE "4-What-U-Got (Thankful 'n' Thoughtful)" PERFORMER "Bulljun" ISRC JPUE00601072 INDEX 00 04:28:42FILE "12 - 4-What-U-Got (Thankful 'n' Thoughtful).wav" WAVE INDEX 01 00:00:00 TRACK 13 AUDIO TITLE "Lite Function Pt.3" PERFORMER "Bulljun" ISRC JPUE00601073 INDEX 00 05:15:37FILE "13 - Lite Function Pt.3.wav" WAVE INDEX 01 00:00:00

Отчет CUETools

[CUETools log; Date: 05.02.2019 22:11:36; Version: 2.1.6][CTDB TOCID: r12xDTeUkjaT8_i7jane8oNu1TU-] found.Track | CTDB Status 1 | (2/2) Accurately ripped 2 | (2/2) Accurately ripped 3 | (2/2) Accurately ripped 4 | (2/2) Accurately ripped 5 | (2/2) Accurately ripped 6 | (2/2) Accurately ripped 7 | (2/2) Accurately ripped 8 | (2/2) Accurately ripped 9 | (2/2) Accurately ripped 10 | (2/2) Accurately ripped 11 | (2/2) Accurately ripped 12 | (2/2) Accurately ripped 13 | (2/2) Accurately ripped[AccurateRip ID: 00168034-00e6ce06-b40c440d] found.Track [ CRC | V2 ] Status 01 [5fb104bb|b880a55f] (0+2/2) Accurately ripped 02 [65240b8d|f1c72e04] (0+2/2) Accurately ripped 03 [ab838acd|c8fb9f31] (0+2/2) Accurately ripped 04 [71cb9dd6|a8518657] (0+2/2) Accurately ripped 05 [effd40fb|f6867f25] (0+2/2) Accurately ripped 06 [aefd43c0|2236ff47] (0+1/2) Accurately ripped 07 [0960f1d6|504b25b6] (0+1/2) Accurately ripped 08 [f8f54329|b834a5f7] (0+1/2) Accurately ripped 09 [8752a0ad|d1c1179c] (0+2/2) Accurately ripped 10 [eae5dea1|827e20fa] (0+2/2) Accurately ripped 11 [41cae68b|bf47580f] (0+2/2) Accurately ripped 12 [3a527e3e|9a2d9302] (0+2/2) Accurately ripped 13 [6e51c049|66682831] (0+2/2) Accurately ripped
Track Peak [ CRC32 ] [W/O NULL] [ LOG ] -- 100,0 [43F91CBE] [0589E23B] 01 100,0 [6E863A3B] [9845C980] CRC32 02 100,0 [DE7F7C26] [CCB38A08] CRC32 03 100,0 [80B45D40] [CF0C4FCA] CRC32 04 100,0 [B7942FC8] [4EF1EDA5] CRC32 05 100,0 [87185966] [49D27B0E] CRC32 06 94,8 [C01CE3AE] [4508644C] CRC32 07 99,8 [4C906534] [B1C194BB] CRC32 08 81,1 [502B254D] [1880E35F] CRC32 09 100,0 [49200FD2] [608A1A29] CRC32 10 100,0 [36DCD677] [87F364E9] CRC32 11 100,0 [07C89754] [254B3750] CRC32 12 89,0 [8D623632] [761F96FC] CRC32 13 99,8 [A3932969] [DC3C6913] CRC32


[torrentc.info]_t_5685464.torrent
Торрент: Зарегистрирован ·  [ 2019-02-16 11:57 ] ·  ee5c4efe87f038948ff75bc98be22a16da664f7d

13 KB

Статус: проверено
Скачан: 0 раз
Размер: 280 MB
Оценка: 
(Голосов: 0)
Сказали спасибо: 0  Спасибо
Похожие темы
[Профиль]    [ЛС]
Показать сообщения:    
Ответить на тему

Текущее время: Сегодня 15:04

Часовой пояс: GMT + 7



Вы не можете начинать темы
Вы не можете отвечать на сообщения
Вы не можете редактировать свои сообщения
Вы не можете удалять свои сообщения
Вы не можете голосовать в опросах
Вы не можете прикреплять файлы к сообщениям
Вы можете скачивать файлы