(Fusion / Jazz-Rock / Contemporary Jazz) [WEB] Kam Falk - Fight or Flight. - 2018, FLAC (tracks), lossless

Ответить на тему
Статистика раздачи [Обновить пиров]
Размер:  259 MB   |    Зарегистрирован:  1 месяц 10 дней   |    Скачан:  1 раз

Полного источника не было: 15 дней

 
   
 
 
 
Автор Сообщение

КЭП

Создавать темы 14-Фев-2019 21:14

[Цитировать]

Kam Falk / Fight or Flight.
Жанр: Fusion / Jazz-Rock / Contemporary Jazz
Носитель: WEB
Год издания: 2018
Издатель (лейбл): Web Release [Falkreations Music (BMI)]
Страна исполнителя (группы): US
Аудиокодек: FLAC (*.flac)
Тип рипа: tracks
Битрейт аудио: lossless
Продолжительность: 38:57 min
Источник: собственная покупка
Наличие сканов в содержимом раздачи:
Треклист:
1. Harmful If Swallowed. 3:28
2. Three Wise Men (Tarova Remix). 3:40
3. Cafe Royale. 3:00
4. Love Cyclone. 3:17
5. Del's Dream. 4:48
6. Tronic. 4:06
7. Whatever It Takes. 4:19
8. Cult of Eight. 4:50
9. Say a Prayer. 4:38
10. Refuge. 2:50

DRM.log

foobar2000 1.3.8 / Dynamic Range Meter 1.1.1log date: 2019-02-01 22:54:35
--------------------------------------------------------------------------------Analyzed: Kam Falk / Fight or Flight--------------------------------------------------------------------------------
DR Peak RMS Duration Track--------------------------------------------------------------------------------DR7 -0.28 dB -8.70 dB 3:28 01-Harmful If SwallowedDR7 0.00 dB -9.39 dB 3:40 02-Three Wise Men (Tarova Remix)DR7 0.00 dB -9.12 dB 3:00 03-Cafe RoyaleDR7 -0.02 dB -9.27 dB 3:17 04-Love CycloneDR8 0.00 dB -9.85 dB 4:48 05-Del's DreamDR7 -0.08 dB -8.95 dB 4:04 06-TronicDR7 0.00 dB -8.90 dB 4:19 07-Whatever It TakesDR8 0.00 dB -9.37 dB 4:50 08-Cult of EightDR8 0.00 dB -9.39 dB 4:38 09-Say a PrayerDR8 -0.13 dB -10.12 dB 2:50 10-Refuge--------------------------------------------------------------------------------
Number of tracks: 10Official DR value: DR7
Samplerate: 44100 HzChannels: 2Bits per sample: 16Bitrate: 691 kbpsCodec: FLAC================================================================================

Лог проверки качества

-----------------------
DON'T MODIFY THIS FILE
-----------------------
PERFORMER: auCDtect Task Manager, ver. 1.6.0 RC1 build 1.6.0.1Copyright (c) 2008-2010 y-soft. All rights reservedhttp://y-soft.org
ANALYZER: auCDtect: CD records authenticity detector, version 0.8.2Copyright (c) 2004 Oleg Berngardt. All rights reserved.Copyright (c) 2004 Alexander Djourik. All rights reserved.
FILE: 01. Harmful If Swallowed.flac Size: 23801736 Hash: 66BFBC6AAD0C3563606E164DFFE0EF84 Accuracy: -m0 Conclusion: CDDA 100% Signature: 29FF3E059CEDA09D8D54E981C96FD9C3F79252DCFILE: 02. Three Wise Men (Tarova Remix).flac Size: 26159503 Hash: 2688CA1C38BC14678BC3D5213E543F82 Accuracy: -m0 Conclusion: CDDA 100% Signature: 0948B5B87D319E9595487876E1EBC0111FE19CACFILE: 03. Cafe Royale.flac Size: 21925594 Hash: 2540BCEB591D2521238ABC0B847CA3F6 Accuracy: -m0 Conclusion: CDDA 100% Signature: 8811F69CF26DA1F3E28121261B832BA6C3B28E47FILE: 04. Love Cyclone.flac Size: 22218308 Hash: D27898B0A1E3DF36633DC6585A0DD30C Accuracy: -m0 Conclusion: CDDA 99% Signature: 05E9554510FFFB1751C5BBDF86213765C3166C93FILE: 05. Del's Dream.flac Size: 32246105 Hash: 6F65C97E6A7C6951DC91DF165AF84A6B Accuracy: -m0 Conclusion: CDDA 99% Signature: 7123530742E2B953B62819A3D4ACE2885E636E89FILE: 06. Tronic.flac Size: 29711033 Hash: B4C9EBE1D3D064D886469D88F4E82339 Accuracy: -m0 Conclusion: CDDA 100% Signature: 68C0FB3B4B0856BD30856462BE4F7ADB87FCCC64FILE: 07. Whatever It Takes.flac Size: 29916438 Hash: AAB37341E0389E18F0C19922C8685C86 Accuracy: -m0 Conclusion: CDDA 100% Signature: 5067E327B057944BB6B8129106AE4DACBF0DB9E0FILE: 08. Cult of Eight.flac Size: 35890741 Hash: E674A18F8354E3D3D9F1B60EABC5CCD2 Accuracy: -m0 Conclusion: CDDA 100% Signature: 6B3AE48FF0F22F8321297180CC9960463E5978CEFILE: 09. Say a Prayer.flac Size: 34140797 Hash: FEF0997118E7C7C0301ED961B68CC188 Accuracy: -m0 Conclusion: CDDA 100% Signature: 5DD5B9A420ECE0414D8BB77337EC6022A74458D8FILE: 10. Refuge.flac Size: 14872893 Hash: 4FE9193F5BAC9F06E079C7BC36A5201B Accuracy: -m0 Conclusion: CDDA 100% Signature: 4F48DB260FCA6FDBBA4E3AA780D353401FF53FF0

Об альбоме (сборнике)

released December 28, 2018

Состав

- Kam Falk / composer, drum programming, vocals, bass, guitars, keyboards
- Federico Himiob / guitars
- Billy D. Lindley / vocals
- John Bruschini / guitars


[torrentc.info]_t_5683323.torrent
Торрент: Зарегистрирован ·  [ 2019-02-14 21:12 ] ·  1ddfbd1dd72f460402e6bfdd544268bc640c8d9f

11 KB

Статус: проверено
Скачан: 1 раз
Размер: 259 MB
Оценка: 
(Голосов: 0)
Сказали спасибо: 0  Спасибо
Похожие темы
[Профиль]    [ЛС]
Показать сообщения:    
Ответить на тему

Текущее время: Сегодня 15:14

Часовой пояс: GMT + 7



Вы не можете начинать темы
Вы не можете отвечать на сообщения
Вы не можете редактировать свои сообщения
Вы не можете удалять свои сообщения
Вы не можете голосовать в опросах
Вы не можете прикреплять файлы к сообщениям
Вы можете скачивать файлы