(Score) [CD] Alien Trilogy (Stephen Root) - 1996, FLAC (tracks+.cue), lossless

Reply to topic
DL-List and Torrent activity [Update пиров]
Size:  224 MB   |    Registered:  9 months 6 days   |    Completed:  0 times

Seeder not seen: Never

 
   
 
 
 
Author Message

Мых

Post 13-Feb-2019 18:02

[Quote]

Alien Trilogy
Жанр: Score
Носитель: CD
Композитор: Stephen Root
Год выхода диска: 1996
Издатель (лейбл): Acclaim Entertainment, Fox Interactive
Аудиокодек: FLAC (*.flac)
Тип рипа: tracks+.cue
Битрейт аудио: lossless
Продолжительность: 00:40:07
Источник: скачано с
сайт-источник/ник/другое: 3ost.ru пользователь Shadow от 23.07.2016
Наличие сканов в содержимом раздачи: нет
Треклист:
01. None - Data Track
02. Stephen Root - Prep for Drop
03. Stephen Root - Oozing Tension
04. Stephen Root - Chase
05. Stephen Root - Derelict
06. Stephen Root - Living Quarters
07. Stephen Root - Heating and Cooling
08. Stephen Root - Industrious Creatures
09. Stephen Root - The Lab
10. Stephen Root - Cell
11. Stephen Root - Mercy Killing
12. Stephen Root - Queen Hive
13. Stephen Root - Eye Of The Storm
14. Stephen Root - Bad Company
15. Stephen Root - Hostile Territory
16. Stephen Root - Unnatural Enemies
17. Stephen Root - Leftovers

Лог создания рипа

Exact Audio Copy V1.3 from 2. September 2016
EAC extraction logfile from 15. August 2017, 17:58
Stephen Root / Alien Trilogy
Used drive : ASUS DRW-24B1ST Adapter: 1 ID: 1
Read mode : SecureUtilize accurate stream : YesDefeat audio cache : YesMake use of C2 pointers : No
Read offset correction : 6Overread into Lead-In and Lead-Out : NoFill up missing offset samples with silence : YesDelete leading and trailing silent blocks : NoNull samples used in CRC calculations : YesUsed interface : Native Win32 interface for Win NT & 2000Gap handling : Appended to previous track
Used output format : Internal WAV RoutinesSample format : 44.100 Hz; 16 Bit; Stereo
TOC of the extracted CD
Track | Start | Length | Start sector | End sector --------------------------------------------------------- 1 | 0:00.00 | 11:15.42 | 0 | 50666 2 | 11:15.42 | 2:14.32 | 50667 | 60748 3 | 13:29.74 | 2:12.05 | 60749 | 70653 4 | 15:42.04 | 2:00.29 | 70654 | 79682 5 | 17:42.33 | 2:24.48 | 79683 | 90530 6 | 20:07.06 | 2:16.10 | 90531 | 100740 7 | 22:23.16 | 2:17.69 | 100741 | 111084 8 | 24:41.10 | 2:59.51 | 111085 | 124560 9 | 27:40.61 | 4:22.09 | 124561 | 144219 10 | 32:02.70 | 2:52.47 | 144220 | 157166 11 | 34:55.42 | 2:31.01 | 157167 | 168492 12 | 37:26.43 | 2:45.33 | 168493 | 180900 13 | 40:12.01 | 2:18.40 | 180901 | 191290 14 | 42:30.41 | 2:16.45 | 191291 | 201535 15 | 44:47.11 | 2:04.31 | 201536 | 210866 16 | 46:51.42 | 2:08.43 | 210867 | 220509 17 | 49:00.10 | 2:22.42 | 220510 | 231201
Track 2
Filename E:\OST\New\006245\Alien Trilogy\02. Stephen Root - Prep for Drop.wav
Pre-gap length 0:00:02.00
Peak level 100.0 % Extraction speed 3.0 X Track quality 99.9 % Test CRC 7E685D12 Copy CRC 7E685D12 Copy OK
Track 3
Filename E:\OST\New\006245\Alien Trilogy\03. Stephen Root - Oozing Tension.wav
Pre-gap length 0:00:01.74
Peak level 99.9 % Extraction speed 4.3 X Track quality 100.0 % Test CRC 8CE6F74F Copy CRC 8CE6F74F Copy OK
Track 4
Filename E:\OST\New\006245\Alien Trilogy\04. Stephen Root - Chase.wav
Pre-gap length 0:00:01.74
Peak level 100.0 % Extraction speed 4.2 X Track quality 100.0 % Test CRC 0FD621E0 Copy CRC 0FD621E0 Copy OK
Track 5
Filename E:\OST\New\006245\Alien Trilogy\05. Stephen Root - Derelict.wav
Pre-gap length 0:00:01.74
Peak level 99.9 % Extraction speed 4.7 X Track quality 100.0 % Test CRC A640497A Copy CRC A640497A Copy OK
Track 6
Filename E:\OST\New\006245\Alien Trilogy\06. Stephen Root - Living Quarters.wav
Pre-gap length 0:00:01.74
Peak level 100.0 % Extraction speed 3.5 X Track quality 99.9 % Test CRC AA1B6985 Copy CRC AA1B6985 Copy OK
Track 7
Filename E:\OST\New\006245\Alien Trilogy\07. Stephen Root - Heating and Cooling.wav
Pre-gap length 0:00:01.74
Peak level 100.0 % Extraction speed 4.9 X Track quality 100.0 % Test CRC 0AE94AFF Copy CRC 0AE94AFF Copy OK
Track 8
Filename E:\OST\New\006245\Alien Trilogy\08. Stephen Root - Industrious Creatures.wav
Pre-gap length 0:00:01.74
Peak level 100.0 % Extraction speed 5.3 X Track quality 100.0 % Test CRC 51D6DF67 Copy CRC 51D6DF67 Copy OK
Track 9
Filename E:\OST\New\006245\Alien Trilogy\09. Stephen Root - The Lab.wav
Pre-gap length 0:00:01.74
Peak level 100.0 % Extraction speed 5.9 X Track quality 100.0 % Test CRC 1ABD5F94 Copy CRC 1ABD5F94 Copy OK
Track 10
Filename E:\OST\New\006245\Alien Trilogy\10. Stephen Root - Cell.wav
Pre-gap length 0:00:01.74
Peak level 100.0 % Extraction speed 4.4 X Track quality 99.9 % Test CRC EB29A164 Copy CRC EB29A164 Copy OK
Track 11
Filename E:\OST\New\006245\Alien Trilogy\11. Stephen Root - Mercy Killing.wav
Pre-gap length 0:00:01.74
Peak level 99.9 % Extraction speed 5.7 X Track quality 100.0 % Test CRC DFA4FDFE Copy CRC DFA4FDFE Copy OK
Track 12
Filename E:\OST\New\006245\Alien Trilogy\12. Stephen Root - Queen Hive.wav
Pre-gap length 0:00:01.74
Peak level 99.9 % Extraction speed 5.9 X Track quality 100.0 % Test CRC 71ADB1E9 Copy CRC 71ADB1E9 Copy OK
Track 13
Filename E:\OST\New\006245\Alien Trilogy\13. Stephen Root - Eye Of The Storm.wav
Pre-gap length 0:00:01.74
Peak level 99.9 % Extraction speed 5.8 X Track quality 100.0 % Test CRC F265611B Copy CRC F265611B Copy OK
Track 14
Filename E:\OST\New\006245\Alien Trilogy\14. Stephen Root - Bad Company.wav
Pre-gap length 0:00:01.74
Peak level 99.9 % Extraction speed 5.9 X Track quality 100.0 % Test CRC 6D8F07E6 Copy CRC 6D8F07E6 Copy OK
Track 15
Filename E:\OST\New\006245\Alien Trilogy\15. Stephen Root - Hostile Territory.wav
Pre-gap length 0:00:01.74
Peak level 99.9 % Extraction speed 5.8 X Track quality 100.0 % Test CRC ABBB2C27 Copy CRC ABBB2C27 Copy OK
Track 16
Filename E:\OST\New\006245\Alien Trilogy\16. Stephen Root - Unnatural Enemies.wav
Pre-gap length 0:00:01.74
Peak level 99.9 % Extraction speed 6.0 X Track quality 100.0 % Test CRC 1886F1E3 Copy CRC 1886F1E3 Copy OK
Track 17
Filename E:\OST\New\006245\Alien Trilogy\17. Stephen Root - Leftovers.wav
Pre-gap length 0:00:01.74
Peak level 99.9 % Extraction speed 5.8 X Track quality 100.0 % Test CRC F358BC17 Copy CRC F358BC17 Copy OK
No errors occurred
End of status report
---- CUETools DB Plugin V2.1.6
[CTDB TOCID: NhHnUqGWjotwUADQ2Lrxy3grxrw-] disk not present in databaseSubmit result: NhHnUqGWjotwUADQ2Lrxy3grxrw- has been uploaded
==== Log checksum 719FCAED1E9EEC7F0213F3280DE1256850F44E3693D86330BFD47040EC51F7A0 ====

Содержание индексной карты (.CUE)

REM GENRE ScoreREM DATE 1996REM DISCID F70C0A11REM COMMENT "ExactAudioCopy v1.3"PERFORMER "Stephen Root"TITLE "Alien Trilogy"FILE ".iso" BINARY TRACK 01 MODEx/2xxx TITLE "Data Track" PERFORMER "None" INDEX 01 00:00:00 TRACK 02 AUDIO TITLE "Prep for Drop" PERFORMER "Stephen Root" INDEX 00 11:13:42FILE "02. Stephen Root - Prep for Drop.wav" WAVE INDEX 01 00:00:00 TRACK 03 AUDIO TITLE "Oozing Tension" PERFORMER "Stephen Root" INDEX 00 02:12:33FILE "03. Stephen Root - Oozing Tension.wav" WAVE INDEX 01 00:00:00 TRACK 04 AUDIO TITLE "Chase" PERFORMER "Stephen Root" INDEX 00 02:10:06FILE "04. Stephen Root - Chase.wav" WAVE INDEX 01 00:00:00 TRACK 05 AUDIO TITLE "Derelict" PERFORMER "Stephen Root" INDEX 00 01:58:30FILE "05. Stephen Root - Derelict.wav" WAVE INDEX 01 00:00:00 TRACK 06 AUDIO TITLE "Living Quarters" PERFORMER "Stephen Root" INDEX 00 02:22:49FILE "06. Stephen Root - Living Quarters.wav" WAVE INDEX 01 00:00:00 TRACK 07 AUDIO TITLE "Heating and Cooling" PERFORMER "Stephen Root" INDEX 00 02:14:11FILE "07. Stephen Root - Heating and Cooling.wav" WAVE INDEX 01 00:00:00 TRACK 08 AUDIO TITLE "Industrious Creatures" PERFORMER "Stephen Root" INDEX 00 02:15:70FILE "08. Stephen Root - Industrious Creatures.wav" WAVE INDEX 01 00:00:00 TRACK 09 AUDIO TITLE "The Lab" PERFORMER "Stephen Root" INDEX 00 02:57:52FILE "09. Stephen Root - The Lab.wav" WAVE INDEX 01 00:00:00 TRACK 10 AUDIO TITLE "Cell" PERFORMER "Stephen Root" INDEX 00 04:20:10FILE "10. Stephen Root - Cell.wav" WAVE INDEX 01 00:00:00 TRACK 11 AUDIO TITLE "Mercy Killing" PERFORMER "Stephen Root" INDEX 00 02:50:48FILE "11. Stephen Root - Mercy Killing.wav" WAVE INDEX 01 00:00:00 TRACK 12 AUDIO TITLE "Queen Hive" PERFORMER "Stephen Root" INDEX 00 02:29:02FILE "12. Stephen Root - Queen Hive.wav" WAVE INDEX 01 00:00:00 TRACK 13 AUDIO TITLE "Eye Of The Storm" PERFORMER "Stephen Root" INDEX 00 02:43:34FILE "13. Stephen Root - Eye Of The Storm.wav" WAVE INDEX 01 00:00:00 TRACK 14 AUDIO TITLE "Bad Company" PERFORMER "Stephen Root" INDEX 00 02:16:41FILE "14. Stephen Root - Bad Company.wav" WAVE INDEX 01 00:00:00 TRACK 15 AUDIO TITLE "Hostile Territory" PERFORMER "Stephen Root" INDEX 00 02:14:46FILE "15. Stephen Root - Hostile Territory.wav" WAVE INDEX 01 00:00:00 TRACK 16 AUDIO TITLE "Unnatural Enemies" PERFORMER "Stephen Root" INDEX 00 02:02:32FILE "16. Stephen Root - Unnatural Enemies.wav" WAVE INDEX 01 00:00:00 TRACK 17 AUDIO TITLE "Leftovers" PERFORMER "Stephen Root" INDEX 00 02:06:44FILE "17. Stephen Root - Leftovers.wav" WAVE INDEX 01 00:00:00

Лог проверки качества

AUDIOCHECKER v2.0 beta (build 457) - by Dester - opdester@freemail.hu~~~~~~~~~~~~~~~~~~~~~~~~~~~~~~~~~~-=== DO NOT EDIT THIS FILE! ===-
Path: ...\Alien Trilogy
01 -=- 02. Stephen Root - Prep for Drop.flac -=- CDDA (100%)02 -=- 03. Stephen Root - Oozing Tension.flac -=- CDDA (99%)03 -=- 04. Stephen Root - Chase.flac -=- CDDA (100%)04 -=- 05. Stephen Root - Derelict.flac -=- CDDA (100%)05 -=- 06. Stephen Root - Living Quarters.flac -=- CDDA (100%)06 -=- 07. Stephen Root - Heating and Cooling.flac -=- CDDA (100%)07 -=- 08. Stephen Root - Industrious Creatures.flac -=- CDDA (100%)08 -=- 09. Stephen Root - The Lab.flac -=- CDDA (100%)09 -=- 10. Stephen Root - Cell.flac -=- CDDA (100%)10 -=- 11. Stephen Root - Mercy Killing.flac -=- CDDA (100%)11 -=- 12. Stephen Root - Queen Hive.flac -=- CDDA (100%)12 -=- 13. Stephen Root - Eye Of The Storm.flac -=- CDDA (100%)13 -=- 14. Stephen Root - Bad Company.flac -=- CDDA (100%)14 -=- 15. Stephen Root - Hostile Territory.flac -=- CDDA (100%)15 -=- 16. Stephen Root - Unnatural Enemies.flac -=- CDDA (100%)16 -=- 17. Stephen Root - Leftovers.flac -=- CDDA (100%)
Summary 99,94% CDDA
213990964

Скриншот спектра частот




[geo-torrent.biz]_t_5687111.torrent
Torrent: Registered ·  [ 2019-02-13 18:02 ] ·  bd4b99036ed39dbd924f55f22e77eb7aa3c3d421

19 KB

Status: checked
Completed: 0 times
Size: 224 MB
Rating: 
(Votes: 0)
Say thanks: 0  Thanks
Похожие темы
[Profile]    [PM]
Display posts from previous:    
Reply to topic

The time now is: Today 14:24

All times are GMT + 7 Hours



You cannot post new topics in this forum
You cannot reply to topics in this forum
You cannot edit your posts in this forum
You cannot delete your posts in this forum
You cannot vote in polls in this forum
You cannot attach files in this forum
You can download files in this forum