(Rock) [WEB] VA - Советская психоделика - 2016, FLAC (tracks), lossless

Ответить на тему
Статистика раздачи [Обновить пиров]
Размер:  587 MB   |    Зарегистрирован:  1 месяц 15 дней   |    Скачан:  1 раз

Полного источника не было: 1 месяц 15 дней

 
   
 
 
 
Автор Сообщение

Roni

Создавать темы 11-Фев-2019 19:05

[Цитировать]

Советская психоделика
Жанр: Rock
Носитель: WEB Presto Jazz
Страна-производитель диска (релиза): Russia
Год издания: 2016
Издатель (лейбл): Мелодия
Номер по каталогу: MELCO0035
Страна исполнителя (группы): USSR
Аудиокодек: FLAC (*.flac)
Тип рипа: tracks
Битрейт аудио: lossless
Продолжительность: 01:43:55
Источник: собственная покупка
Наличие сканов в содержимом раздачи: нет
Треклист:
01. Аракс, Феликс Иванов, Геннадий Трофимов – Эпилог (из мюзикла "Звезда и смерть Хоакина Мурьеты")
02. Поющие гитары – Вечерний город
03. Тайфуны, Нина Урбано – Циганерия
04. Оркестр Госкино СССР – Модный танец (из к/ф "Служебный роман")
05. Арника – Весна
06. Магнетик Бенд, Гуннар Грапс – Трубадур на магистрали
07. Большой оркестр легкой музыки п/у Юозаса Домаркаса, Арунас Дикчюс – Парень из Кражанте
08. Дос-Мукасан, Тасхан Нарбаева – Бетпак дала
09. Гунеш – Река Туни
10. Иверия – Песня о Грузии
11. Ансамбль п/у Яана Кумана – Играйте, ребята
12. Люся Грин – Советская психоделика

Лог проверки качества

Lossless Audio Checker 2.0.7 logfile from Monday 04 February 2019 08:58:33 PM
File: D:\Разное1\Новая папка\Советская психоделика\01. Эпилог.flacResult: Upsampled
File: D:\Разное1\Новая папка\Советская психоделика\02. Вечерний город.flacResult: Clean
File: D:\Разное1\Новая папка\Советская психоделика\03. Циганерия.flacResult: Clean
File: D:\Разное1\Новая папка\Советская психоделика\04. Модный танец.flacResult: Clean
File: D:\Разное1\Новая папка\Советская психоделика\05. Весна.flacResult: Clean
File: D:\Разное1\Новая папка\Советская психоделика\06. Трубадур на магистрали.flacResult: Clean
File: D:\Разное1\Новая папка\Советская психоделика\07. Парень из Кражанте.flacResult: Clean
File: D:\Разное1\Новая папка\Советская психоделика\08. Бетпак дала.flacResult: Upsampled
File: D:\Разное1\Новая папка\Советская психоделика\09. Река Туни.flacResult: Clean
File: D:\Разное1\Новая папка\Советская психоделика\10. Песня о Грузии.flacResult: Upsampled
File: D:\Разное1\Новая папка\Советская психоделика\11. Играйте, ребята.flacResult: Clean
File: D:\Разное1\Новая папка\Советская психоделика\12. Советская психоделика.flacResult: Clean

Скриншот спектра частот

DR11

foobar2000 1.3.9 / Dynamic Range Meter 1.1.1
log date: 2019-02-04 22:16:28
--------------------------------------------------------------------------------
Analyzed: Ансамбль п/у Яана Кумана / Советская психоделика (1)
Аракс, Феликс Иванов, Геннадий Трофимов / Советская психоделика (2)
Арника / Советская психоделика (3)
Большой оркестр легкой музыки п/у Юозаса Домаркаса, Арунас Дикчюс / Советская психоделика (4)
Гунеш / Советская психоделика (5)
Дос-Мукасан, Тасхан Нарбаева / Советская психоделика (6)
Иверия / Советская психоделика (7)
Люся Грин / Советская психоделика (8)
Магнетик Бенд, Гуннар Грапс / Советская психоделика (9)
Оркестр Госкино СССР / Советская психоделика (10)
Поющие гитары / Советская психоделика (11)
Тайфуны, Нина Урбано / Советская психоделика (12)
--------------------------------------------------------------------------------
DR Peak RMS Duration Track
--------------------------------------------------------------------------------
DR10 -3.33 dB -16.02 dB 6:10 11-Играйте, ребята
DR11 -0.88 dB -17.27 dB 1:49 01-Эпилог (из мюзикла "Звезда и смерть Хоакина Мурьеты")
DR14 -1.76 dB -18.62 dB 9:17 05-Весна
DR11 -5.39 dB -19.75 dB 4:09 07-Парень из Кражанте
DR13 -0.66 dB -17.14 dB 5:34 09-Река Туни
DR12 -9.90 dB -25.03 dB 11:53 08-Бетпак дала
DR9 -1.31 dB -14.57 dB 2:50 10-Песня о Грузии
DR14 -3.67 dB -20.96 dB 48:39 12-Советская психоделика
DR12 -5.37 dB -19.76 dB 5:17 06-Трубадур на магистрали
DR11 -2.11 dB -17.61 dB 2:28 04-Модный танец (из к/ф "Служебный роман")
DR11 -3.35 dB -18.13 dB 1:39 02-Вечерний город
DR10 -5.46 dB -18.15 dB 4:12 03-Циганерия
--------------------------------------------------------------------------------
Number of tracks: 12
Official DR value: DR11
Samplerate: 44100 Hz
Channels: 2
Bits per sample: 16
Bitrate: 774 kbps
Codec: FLAC
================================================================================

Об альбоме (сборнике)

Фирма "Мелодия" представила в сети сборник советской психоделической музыки 60-80-х годов. "Советская психоделика" приоткрывает неискушенному зрителю дверь в мир удивительного культурного наследия советских лет, о котором сегодня практически забыли. Советская эстрада ведь не была ограничена двумя десятками имён, которые сегодня у всех на слуху.
Музыкантов было много, и играли они музыку самую разную. Это была особая музыкальная вселенная, часто созвучная тому, что играли на Западе.
У поколения, советской эстрады не заставшего, сложилось своё представление о ней: оно основано в основном на репертуаре сегодняшних ретро-радиостанций. Одни и те же ретро-хиты вперемешку с итальянскими шлягерами в выходные доносятся с каждого дачного участка вместе с запахом шашлыка. Но порой в Интернете мелькает что-то оригинальное и забытое. Слушаешь — и удивляешься.
Так в 2010 году мир открыл для себя Эдуарда Хиля. Многие россияне из поколения 90-х тогда впервые узнали о Хиле как о "мистере Трололо". Последние годы жизни певец провёл, купаясь в лучах славы. Но в репертуар наших ретро-радиостанций почему-то так и не попал. И подобных открытий неискушенному в советской эстраде слушателю предстоит сделать ещё немало.
"Легкий бриз степных просторов, мощь гор и шелест листвы, гул лесов и робкое биение сердца, дыхание эпохи, воспетые в ритме ХХ века, — все это песни, произведения ансамбля "Дос-Мукасан", — писала в 1973 году казахская газета "Ленинская молодёжь" об игре местного студенческого коллектива. В Берлине на Всемирном фестивале молодёжи и студентов в тот год "Дос-Мукасан" был награждён золотой медалью.
раздаю через телефон, просьба оставаться на раздаче


[torrentc.info]_t_5684991.torrent
Торрент: Зарегистрирован ·  [ 2019-02-11 19:01 ] ·  34875843d3c4216d695f891a9380eb70c0413865

47 KB

Статус: проверено
Скачан: 1 раз
Размер: 587 MB
Оценка: 
(Голосов: 0)
Сказали спасибо: 0  Спасибо
Похожие темы
[Профиль]    [ЛС]
Показать сообщения:    
Ответить на тему

Текущее время: Сегодня 06:15

Часовой пояс: GMT + 7



Вы не можете начинать темы
Вы не можете отвечать на сообщения
Вы не можете редактировать свои сообщения
Вы не можете удалять свои сообщения
Вы не можете голосовать в опросах
Вы не можете прикреплять файлы к сообщениям
Вы можете скачивать файлы