Звезда родилась / A Star Is Born (Брэдли Купер / Bradley Cooper ) [2018, США, Мелодрама, музыка, BDRip, HD (720p)] DUB + Original + sub (rus, ukr, eng)

Ответить на тему
Статистика раздачи [Обновить пиров]
Размер:  4.8 GB   |    Зарегистрирован:  12 дней   |    Скачан:  0 раз

Полного источника не было: Никогда

 
   
 
 
 
Автор Сообщение

torrentc.info

Создавать темы 06-Фев-2019 23:07

[Цитировать]

Звезда родилась / A Star Is Born
-
7.539 / 10 8.10 / 10
- Год выхода: 2018
Страна: США
Жанр: Мелодрама, музыка
Продолжительность: 02:15:45
Перевод: Дублированный (Лицензия)
Оригинальная аудиодорожка: Есть
Cубтитры: Русские форсированные, Украинские форсированные, Русские, Английские
Режиссёр: Брэдли Купер
Сценарий: Эрик Рот, Брэдли Купер, Уилл Феттерс
Продюсер: Брэдли Купер, Роберт Дж. Дорманн, Билл Гербер
Оператор: Мэттью Либатик
Художник: Карен Мерфи, Мэттью Хоран, Брэдли Рубин
Монтаж: Джей Кэссиди
В ролях: Леди Гага, Брэдли Купер, Сэм Эллиотт, Эндрю Дайс Клэй, Рафи Гаврон, Энтони Рамос, Дэйв Шаппелл, Алек Болдуин, Марлон Уильямс, Брэнди Карлайл
Бюджет: $36 000 000
Сборы в США: $203 984 749
Сборы в мире: + $202 300 000 = $406 284 749
Сборы в России: $2 863 736
Мировая премьера: 31 августа 2018
Премьера (РФ): 4 октября 2018, «Каро-Премьер»
Цифровой релиз: 16 января 2019, «Warner Bros.»
Описание: Кантри-музыкант Джексон Мейн, чья карьера быстро катится под откос, однажды знакомится с никому не известной талантливой певицей Элли. Между героями вспыхивает страстный роман. Джек помогает Элли добиться успеха. Но чем стремительнее набирает обороты музыкальная карьера Элли, тем сложнее ему мириться со своей увядающей славой.-Качество Источник: Torrentcа: BDRemux (NNMClub)
Качество: BDRip
Тип: HD (720p)
Формат файла: M4V
Видео: H.264, 1280x536, 2.40:1, 3 500 Kbps, 23.976 (24000/1001) fps
Аудио 1: Русский/Дублированный (Лицензия), AAC LC / 2.0 / 160 Kbps / 48.0 KHz
Аудио 2: Английский/Оригинальная дорожка , AAC LC / 2.0 / 160 Kbps / 48.0 KHz
Аудио 3: Украинский/Дублированный (iTunes), AAC LC / 2.0 / 160 Kbps / 48.0 KHz
Аудио 4: Русский/Дублированный (Лицензия), AC-3 / 5.1 / 448 Kbps / 48.0 KHz
Аудио 5: Английский/Оригинальная дорожка , AC-3 / 5.1 / 640 Kbps / 48.0 KHz
Субтитры 1: Русские форсированные
Субтитры 2: Украинские форсированные
Субтитры 3: Русские полные
Субтитры 4: Английские полные
-

iTunes Meta Tags

Sort Name: Star Is Born
XID: Apple:vendor_id:2018-474935
contentID: 1437031362
Copyright: © 2018 Warner Bros. Entertainment Inc. and Metro-Goldwyn-Mayer Pictures Inc. All Rights Reserved.
Screenwriters: Эрик Рот, Брэдли Купер, Уилл Феттерс
Producers: Брэдли Купер, Роберт Дж. Дорманн, Билл Гербер
Director: Брэдли Купер
Cast: Леди Гага, Брэдли Купер, Сэм Эллиотт, Эндрю Дайс Клэй, Рафи Гаврон, Энтони Рамос, Дэйв Шаппелл, Алек Болдуин, Марлон Уильямс, Брэнди Карлайл
Studio: Warner Bros.
Rating Annotation: Rated R for language throughout, some sexuality/nudity and substance abuse.
Rating: 5
Long Description: Кантри-музыкант Джексон Мейн, чья карьера быстро катится под откос, однажды знакомится с никому не известной талантливой певицей Элли. Между героями вспыхивает страстный роман. Джек помогает Элли добиться успеха. Но чем стремительнее набирает обороты музыкальная карьера Элли, тем сложнее ему мириться со своей увядающей славой.
Description: Кантри-музыкант Джексон Мейн, чья карьера быстро катится под откос, однажды знакомится с никому не известной талантливой певицей Элли. Между героями вспыхивает страстный роман. Джек помогает Элли добиться успеха. Но чем стремительнее набирает обороты музыкальная карьера Элли, тем сложнее ему мириться со своей увядающей славой.
Release Date: 2018-08-31T08:00:00Z
Genre: Drama
Artist: Bradley Cooper
Name: A Star Is Born (2018)

MediaInfo

General
Complete name                            : /Users/imac/HandBrake/A Star Is Born (720p HD).m4v
Format                                   : MPEG-4
Codec ID                                 : M4V  (M4V /M4A /mp42/isom)
File size                                : 4.80 GiB
Duration                                 : 2h 15mn
Overall bit rate mode                    : Variable
Overall bit rate                         : 5 059 Kbps
Movie name                               : A Star Is Born (2018)
Performer                                : Bradley Cooper
Director                                 : Брэдли Купер
Actor                                    : Леди Гага / Брэдли Купер / Сэм Эллиотт / Эндрю Дайс Клэй / Рафи Гаврон / Энтони Рамос / Дэйв Шаппелл / Алек Болдуин / Марлон Уильямс / Брэнди Карлайл
Screenplay by                            : Эрик Рот / Брэдли Купер / Уилл Феттерс
Producer                                 : Брэдли Купер / Роберт Дж. Дорманн / Билл Гербер
Production studio                        : Warner Bros.
Genre                                    : Drama
ContentType                              : Short Film
Description                              : Кантри-музыкант Джексон Мейн, чья карьера быстро катится под откос, однажды знакомится с никому не известной талантливой певицей Элли. Между героями вспыхивает страстный роман. Джек помогает Элли добиться успеха. Но чем стремительнее набирает обороты музыкальная карьера Элли, тем сложнее ему мириться со своей увядающей славой.
Recorded date                            : UTC 2018-08-31 08:00:00
Encoded date                             : UTC 2019-01-28 15:15:48
Tagged date                              : UTC 2019-01-28 15:19:20
Copyright                                : © 2018 Warner Bros. Entertainment Inc. and Metro-Goldwyn-Mayer Pictures Inc. All Rights Reserved.
Cover                                    : Yes
Rating                                   : None
Title/Sort                               : Star Is Born
LongDescription                          : Кантри-музыкант Джексон Мейн, чья карьера быстро катится под откос, однажды знакомится с никому не известной талантливой певицей Элли. Между героями вспыхивает страстный роман. Джек помогает Элли добиться успеха. Но чем стремительнее набирает обороты музыкальная карьера Элли, тем сложнее ему мириться со своей увядающей славой.
HDVideo                                  : Yes
AppleStoreCatalogID                      : 1437031362
Vendor                                   : Apple:vendor_id:2018-474935
ContentRating                            : mpaa|R|400|Rated R for language throughout, some sexuality/nudity and substance abuse.
Video #1
ID                                       : 1
Format                                   : AVC
Format/Info                              : Advanced Video Codec
Format profile                           : High@L3.1
Format settings                          : 3 Ref Frames
Format settings, CABAC                   : No
Format settings, ReFrames                : 3 frames
Codec ID                                 : avc1
Codec ID/Info                            : Advanced Video Coding
Duration                                 : 2h 15mn
Bit rate                                 : 3 500 Kbps
Width                                    : 1 280 pixels
Height                                   : 536 pixels
Display aspect ratio                     : 2.40:1
Frame rate mode                          : Variable
Frame rate                               : 23.976 (24000/1001) fps
Minimum frame rate                       : 23.974 fps
Maximum frame rate                       : 23.981 fps
Color space                              : YUV
Chroma subsampling                       : 4:2:0
Bit depth                                : 8 bits
Scan type                                : Progressive
Bits/(Pixel*Frame)                       : 0.213
Stream size                              : 3.31 GiB (69%)
Title                                    : Main Program
Writing library                          : x264 core 157 r2935 545de2f
Encoding settings                        : cabac=0 / ref=3 / deblock=1:-3:-3 / analyse=0x3:0x113 / me=umh / subme=9 / psy=1 / psy_rd=1.00:0.15 / mixed_ref=1 / me_range=32 / chroma_me=1 / trellis=0 / 8x8dct=1 / cqm=0 / deadzone=21,11 / fast_pskip=0 / chroma_qp_offset=-2 / threads=17 / lookahead_threads=1 / sliced_threads=0 / nr=0 / decimate=0 / interlaced=0 / bluray_compat=0 / constrained_intra=0 / bframes=3 / b_pyramid=0 / b_adapt=2 / b_bias=0 / direct=1 / weightb=0 / open_gop=0 / weightp=0 / keyint=240 / keyint_min=24 / scenecut=40 / intra_refresh=0 / rc_lookahead=40 / rc=2pass / mbtree=1 / bitrate=3500 / ratetol=1.0 / qcomp=0.65 / qpmin=0 / qpmax=69 / qpstep=4 / cplxblur=20.0 / qblur=0.5 / vbv_maxrate=9500 / vbv_bufsize=9500 / nal_hrd=none / filler=0 / ip_ratio=1.40 / aq=1:1.10
Language                                 : English
Encoded date                             : UTC 2019-01-28 15:15:48
Tagged date                              : UTC 2019-01-28 15:16:01
Color range                              : Limited
Color primaries                          : BT.709
Transfer characteristics                 : BT.709
Matrix coefficients                      : BT.709
Menus                                    : 11,12
Codec configuration box                  : avcC
Video #2
ID                                       : 12
Format                                   : JPEG
Codec ID                                 : jpeg
Duration                                 : 2h 15mn
Bit rate mode                            : Variable
Bit rate                                 : 511 bps
Width                                    : 640 pixels
Height                                   : 268 pixels
Display aspect ratio                     : 2.40:1
Frame rate mode                          : Variable
Frame rate                               : 0.002 fps
Minimum frame rate                       : 0.002 fps
Maximum frame rate                       : 0.007 fps
Color space                              : YUV
Chroma subsampling                       : 4:2:0
Bit depth                                : 8 bits
Compression mode                         : Lossy
Bits/(Pixel*Frame)                       : 1.490
Stream size                              : 593 KiB (0%)
Title                                    : Chapter Images
Language                                 : English
Default                                  : No
Encoded date                             : UTC 2019-01-28 15:17:24
Tagged date                              : UTC 2019-01-28 15:17:25
Menu For                                 : 1
ColorSpace_ICC                           : RGB
Audio #1
ID                                       : 2
Format                                   : AAC LC
Format/Info                              : Advanced Audio Codec Low Complexity
Codec ID                                 : mp4a-40-2
Duration                                 : 2h 15mn
Source duration                          : 2h 15mn
Bit rate mode                            : Variable
Bit rate                                 : 154 Kbps
Maximum bit rate                         : 245 Kbps
Channel(s)                               : 2 channels
Channel layout                           : L R
Sampling rate                            : 48.0 KHz
Frame rate                               : 46.875 fps (1024 SPF)
Compression mode                         : Lossy
Stream size                              : 150 MiB (3%)
Source stream size                       : 150 MiB (3%)
Title                                    : Russian Stereo
Language                                 : Russian
Default                                  : Yes
Alternate group                          : 1
Encoded date                             : UTC 2019-01-28 15:15:48
Tagged date                              : UTC 2019-01-28 15:17:20
Fallback From                            : 5
Subtitles                                : 7,9
Audio #2
ID                                       : 3
Format                                   : AAC LC
Format/Info                              : Advanced Audio Codec Low Complexity
Codec ID                                 : mp4a-40-2
Duration                                 : 2h 15mn
Source duration                          : 2h 15mn
Bit rate mode                            : Variable
Bit rate                                 : 154 Kbps
Maximum bit rate                         : 239 Kbps
Channel(s)                               : 2 channels
Channel layout                           : L R
Sampling rate                            : 48.0 KHz
Frame rate                               : 46.875 fps (1024 SPF)
Compression mode                         : Lossy
Stream size                              : 149 MiB (3%)
Source stream size                       : 149 MiB (3%)
Title                                    : English Stereo
Language                                 : English
Default                                  : No
Alternate group                          : 1
Encoded date                             : UTC 2019-01-28 15:15:48
Tagged date                              : UTC 2019-01-28 15:17:20
Fallback From                            : 6
Audio #3
ID                                       : 4
Format                                   : AAC LC
Format/Info                              : Advanced Audio Codec Low Complexity
Codec ID                                 : mp4a-40-2
Duration                                 : 2h 15mn
Source duration                          : 2h 15mn
Bit rate mode                            : Variable
Bit rate                                 : 156 Kbps
Maximum bit rate                         : 223 Kbps
Channel(s)                               : 2 channels
Channel layout                           : L R
Sampling rate                            : 48.0 KHz
Frame rate                               : 46.875 fps (1024 SPF)
Compression mode                         : Lossy
Stream size                              : 151 MiB (3%)
Source stream size                       : 151 MiB (3%)
Title                                    : Ukrainian Stereo
Language                                 : Ukrainian
Default                                  : No
Alternate group                          : 1
Encoded date                             : UTC 2019-01-28 15:15:48
Tagged date                              : UTC 2019-01-28 15:17:20
Subtitles                                : 8
Audio #4
ID                                       : 5
Format                                   : AC-3
Format/Info                              : Audio Coding 3
Commercial name                          : Dolby Digital
Codec ID                                 : ac-3
Duration                                 : 2h 15mn
Bit rate mode                            : Constant
Bit rate                                 : 448 Kbps
Channel(s)                               : 6 channels
Channel layout                           : L R C LFE Ls Rs
Sampling rate                            : 48.0 KHz
Frame rate                               : 31.250 fps (1536 SPF)
Bit depth                                : 16 bits
Compression mode                         : Lossy
Stream size                              : 435 MiB (9%)
Title                                    : Russian DD 5.1
Language                                 : Russian
Service kind                             : Complete Main
Default                                  : Inherited From: 2
Alternate group                          : 1
Encoded date                             : UTC 2019-01-28 15:15:48
Tagged date                              : UTC 2019-01-28 15:17:20
Fallback To                              : 2
Subtitles                                : 7,9
Audio #5
ID                                       : 6
Format                                   : AC-3
Format/Info                              : Audio Coding 3
Commercial name                          : Dolby Digital
Codec ID                                 : ac-3
Duration                                 : 2h 15mn
Bit rate mode                            : Constant
Bit rate                                 : 640 Kbps
Channel(s)                               : 6 channels
Channel layout                           : L R C LFE Ls Rs
Sampling rate                            : 48.0 KHz
Frame rate                               : 31.250 fps (1536 SPF)
Bit depth                                : 16 bits
Compression mode                         : Lossy
Stream size                              : 621 MiB (13%)
Title                                    : English DD 5.1
Language                                 : English
Service kind                             : Complete Main
Default                                  : No
Alternate group                          : 1
Encoded date                             : UTC 2019-01-28 15:15:48
Tagged date                              : UTC 2019-01-28 15:17:20
Fallback To                              : 3
Text #1
ID                                       : 7
Format                                   : Timed Text
Muxing mode                              : sbtl
Codec ID                                 : tx3g
Duration                                 : 2h 15mn
Bit rate mode                            : Variable
Bit rate                                 : 11 bps
Stream size                              : 10.6 KiB (0%)
Title                                    : Russian forced
Language                                 : Russian
Default                                  : Yes
Forced                                   : Yes
Alternate group                          : 2
Encoded date                             : UTC 2019-01-28 15:15:48
Tagged date                              : UTC 2019-01-28 15:17:19
Subtitles For                            : 2,5
Full Alternative                         : 9
Text #2
ID                                       : 8
Format                                   : Timed Text
Muxing mode                              : sbtl
Codec ID                                 : tx3g
Duration                                 : 2h 15mn
Bit rate mode                            : Variable
Bit rate                                 : 0 bps
Stream size                              : 363 Bytes (0%)
Title                                    : Ukrainian forced
Language                                 : Ukrainian
Default                                  : No
Forced                                   : Yes
Alternate group                          : 2
Encoded date                             : UTC 2019-01-28 15:15:48
Tagged date                              : UTC 2019-01-28 15:17:19
Subtitles For                            : 4
Text #3
ID                                       : 9
Format                                   : Timed Text
Muxing mode                              : sbtl
Codec ID                                 : tx3g
Duration                                 : 2h 15mn
Bit rate mode                            : Variable
Bit rate                                 : 104 bps
Stream size                              : 103 KiB (0%)
Title                                    : Russian full
Language                                 : Russian
Default                                  : No
Forced                                   : No
Alternate group                          : 2
Encoded date                             : UTC 2019-01-28 15:15:48
Tagged date                              : UTC 2019-01-28 15:17:17
Subtitles For                            : 2,5
Forced Alternative                       : 7
Text #4
ID                                       : 10
Format                                   : Timed Text
Muxing mode                              : sbtl
Codec ID                                 : tx3g
Duration                                 : 2h 15mn
Bit rate mode                            : Variable
Bit rate                                 : 84 bps
Stream size                              : 83.1 KiB (0%)
Title                                    : English full
Language                                 : English
Default                                  : No
Forced                                   : No
Alternate group                          : 2
Encoded date                             : UTC 2019-01-28 15:15:48
Tagged date                              : UTC 2019-01-28 15:17:19
Menu #1
00:00:00.000                             : Chapter 01
00:08:03.316                             : Chapter 02
00:15:25.675                             : Chapter 03
00:20:26.100                             : Chapter 04
00:29:59.840                             : Chapter 05
00:36:07.832                             : Chapter 06
00:38:33.603                             : Chapter 07
00:49:23.669                             : Chapter 08
00:54:12.291                             : Chapter 09
00:56:41.648                             : Chapter 10
01:07:03.728                             : Chapter 11
01:15:37.533                             : Chapter 12
01:21:02.358                             : Chapter 13
01:24:22.057                             : Chapter 14
01:34:38.381                             : Chapter 15
01:43:44.802                             : Chapter 16
01:50:53.063                             : Chapter 17
02:01:20.648                             : Chapter 18
02:05:20.513                             : Chapter 19
Menu #2
ID                                       : 11
Codec ID                                 : text
Duration                                 : 2h 15mn
Language                                 : English
Encoded date                             : UTC 2019-01-28 15:17:20
Tagged date                              : UTC 2019-01-28 15:17:20
Bit rate mode                            : CBR
Menu For                                 : 1
00:00:00.000                             : Chapter 01
00:08:03.316                             : Chapter 02
00:15:25.675                             : Chapter 03
00:20:26.100                             : Chapter 04
00:29:59.840                             : Chapter 05
00:36:07.832                             : Chapter 06
00:38:33.603                             : Chapter 07
00:49:23.669                             : Chapter 08
00:54:12.291                             : Chapter 09
00:56:41.648                             : Chapter 10
01:07:03.728                             : Chapter 11
01:15:37.533                             : Chapter 12
01:21:02.358                             : Chapter 13
01:24:22.057                             : Chapter 14
01:34:38.381                             : Chapter 15
01:43:44.802                             : Chapter 16
01:50:53.063                             : Chapter 17
02:01:20.648                             : Chapter 18
02:05:20.513                             : Chapter 19

x264 лог

x264 [info]: frame I:1357  Avg QP:15.88  size: 95639
x264 [info]: frame P:73118 Avg QP:18.89  size: 32438
x264 [info]: frame B:120813 Avg QP:20.18  size:  8756
x264 [info]: consecutive B-frames:  3.5% 34.9% 21.2% 40.4%
x264 [info]: mb I  I16..4:  9.8% 60.5% 29.7%
x264 [info]: mb P  I16..4:  2.0%  6.1%  2.7%  P16..4: 46.6% 25.5% 11.2%  0.0%  0.0%    skip: 6.0%
x264 [info]: mb B  I16..4:  0.1%  0.5%  0.3%  B16..8: 47.6% 10.2%  1.7%  direct: 4.5%  skip:35.0%  L0:39.3% L1:53.7% BI: 7.0%
x264 [info]: 8x8 transform intra:57.4% inter:50.0%
x264 [info]: coded y,uvDC,uvAC intra: 79.7% 87.1% 68.3% inter: 25.8% 30.6% 15.7%
x264 [info]: i16 v,h,dc,p: 44% 15%  6% 36%
x264 [info]: i8 v,h,dc,ddl,ddr,vr,hd,vl,hu: 12%  6%  4% 12% 16% 16% 13% 12% 10%
x264 [info]: i4 v,h,dc,ddl,ddr,vr,hd,vl,hu: 11%  6%  3% 12% 18% 17% 13% 11%  8%
x264 [info]: i8c dc,h,v,p: 47% 15% 22% 15%
x264 [info]: ref P L0: 74.3% 15.3% 10.4%
x264 [info]: ref B L0: 82.2% 17.8%
x264 [info]: kb/s:3495.95

Скриншоты

-

подготовлен для просмотра на Apple TV, iPad, iPhone, iPod Touch.
Для просмотра данного релиза на компьютере с ОС Windows рекомендуется использовать VLC media player


[torrentc.info]_t_5681288.torrent
Торрент: Зарегистрирован ·  [ 2019-02-06 23:06 ] ·  9e7b7d6c33bfd224bff00b916f5cada327cd3d8f

48 KB

Статус: проверено
Скачан: 0 раз
Размер: 4.8 GB
Оценка: 
(Голосов: 0)
Сказали спасибо: 0  Спасибо
Похожие темы
[Профиль]    [ЛС]
Показать сообщения:    
Ответить на тему

Текущее время: Сегодня 13:55

Часовой пояс: GMT + 7



Вы не можете начинать темы
Вы не можете отвечать на сообщения
Вы не можете редактировать свои сообщения
Вы не можете удалять свои сообщения
Вы не можете голосовать в опросах
Вы не можете прикреплять файлы к сообщениям
Вы можете скачивать файлы