(Breakbeat, Acid Jazz) [CD] A.Y.B. Force - Lost Breaks - 2006 (Japan Edition), FLAC (tracks+.cue), lossless

Reply to topic
DL-List and Torrent activity [Update пиров]
Size:  345 MB   |    Registered:  8 months 12 days   |    Completed:  0 times

Seeder not seen: Never

 
   
 
 
 
Author Message

Mr_Fox

Post 06-Feb-2019 19:59

[Quote]

A.Y.B. Force - Lost Breaks
Жанр: Breakbeat, Acid Jazz
Носитель: CD
Страна-производитель диска (релиза): Япония
Год издания: 2006
Издатель (лейбл): P-Vine Records
Номер по каталогу: PCD-23729
Аудиокодек: FLAC (*.flac)
Тип рипа: tracks+.cue
Битрейт аудио: lossless
Продолжительность: 00:56:37
Источник: fungusamungus
Наличие сканов в содержимом раздачи: нет
Треклист:
01. Doyouwannasee (3:12)
02. Last Nite Was Da Nite (0:40)
03. Asanova (3:56)
04. Sunshine Hair (2:51)
05. Going, Going, Gone (4:26)
06. Marry-Go-Round (2:38)
07. Ultazz (0:37)
08. A.Y.Boogaloo (3:39)
09. Ulticut Live from *** #2 (0:25)
10. Breaking Point (3:30)
11. Wild Pitch (5:17)
12. Carioca River (3:44)
13. From Darkside (1:10)
14. Hardboiled (4:53)
15. Giant Swing (4:40)
16. Ulticut Live from *** #8 (0:28)
17. Endless Dawn (6:14)
18. Musica Camp (4:17)

Лог создания рипа

Exact Audio Copy V1.3 from 2. September 2016
EAC extraction logfile from 16. March 2017, 17:34
A.Y.B. Force / Lost Breaks
Used drive : TSSTcorpCDDVDW SH-S223Q Adapter: 1 ID: 0
Read mode : SecureUtilize accurate stream : YesDefeat audio cache : YesMake use of C2 pointers : No
Read offset correction : 6Overread into Lead-In and Lead-Out : NoFill up missing offset samples with silence : YesDelete leading and trailing silent blocks : NoNull samples used in CRC calculations : YesUsed interface : Native Win32 interface for Win NT & 2000Gap handling : Appended to previous track
Used output format : User Defined EncoderSelected bitrate : 1024 kBit/sQuality : HighAdd ID3 tag : NoCommand line compressor : C:\Program Files (x86)\Exact Audio Copy\Flac\flac.exeAdditional command line options : -8 -e -p -V -T "ARTIST=%artist%" -T "TITLE=%title%" -T "ALBUM=%albumtitle%" -T "DATE=%year%" -T "TRACKNUMBER=%tracknr%" -T "GENRE=%genre%" -T "PERFORMER=%albuminterpret%" -T "COMPOSER=%composer%" %haslyrics%--tag-from-file=LYRICS="%lyricsfile%"%haslyrics% -T "ALBUMARTIST=%albumartist%" -T "DISCNUMBER=%cdnumber%" -T "TOTALDISCS=%totalcds%" -T "TOTALTRACKS=%numtracks%" -T "COMMENT=%comment%" %source% -o %dest%
TOC of the extracted CD
Track | Start | Length | Start sector | End sector --------------------------------------------------------- 1 | 0:00.00 | 3:11.42 | 0 | 14366 2 | 3:11.42 | 0:40.35 | 14367 | 17401 3 | 3:52.02 | 3:55.61 | 17402 | 35087 4 | 7:47.63 | 2:50.67 | 35088 | 47904 5 | 10:38.55 | 4:25.38 | 47905 | 67817 6 | 15:04.18 | 2:38.33 | 67818 | 79700 7 | 17:42.51 | 0:37.24 | 79701 | 82499 8 | 18:20.00 | 3:39.01 | 82500 | 98925 9 | 21:59.01 | 0:24.55 | 98926 | 100780 10 | 22:23.56 | 3:30.14 | 100781 | 116544 11 | 25:53.70 | 5:16.57 | 116545 | 140301 12 | 31:10.52 | 3:43.46 | 140302 | 157072 13 | 34:54.23 | 1:10.01 | 157073 | 162323 14 | 36:04.24 | 4:53.26 | 162324 | 184324 15 | 40:57.50 | 4:40.31 | 184325 | 205355 16 | 45:38.06 | 0:27.73 | 205356 | 207453 17 | 46:06.04 | 6:14.27 | 207454 | 235530 18 | 52:20.31 | 4:17.12 | 235531 | 254817
Track 1
Filename E:\Dem GOOD Rips\Mein\A.Y.B. Force - 2006 - Lost Breaks [CD FLAC]\01 Doyouwannasee.wav
Pre-gap length 0:00:02.00
Peak level 100.0 % Extraction speed 1.7 X Track quality 99.9 % Test CRC 25ACD93E Copy CRC 25ACD93E Accurately ripped (confidence 2) [D1B79CE0] (AR v2) Copy OK
Track 2
Filename E:\Dem GOOD Rips\Mein\A.Y.B. Force - 2006 - Lost Breaks [CD FLAC]\02 Last Nite Was Da Nite.wav
Peak level 100.0 % Extraction speed 0.8 X Track quality 99.7 % Test CRC 31008FFB Copy CRC 31008FFB Accurately ripped (confidence 2) [A884F65D] (AR v2) Copy OK
Track 3
Filename E:\Dem GOOD Rips\Mein\A.Y.B. Force - 2006 - Lost Breaks [CD FLAC]\03 Asanova.wav
Peak level 100.0 % Extraction speed 2.1 X Track quality 100.0 % Test CRC DF55B4CA Copy CRC DF55B4CA Accurately ripped (confidence 2) [378106E6] (AR v2) Copy OK
Track 4
Filename E:\Dem GOOD Rips\Mein\A.Y.B. Force - 2006 - Lost Breaks [CD FLAC]\04 Sunshine Hair.wav
Pre-gap length 0:00:00.25
Peak level 100.0 % Extraction speed 2.0 X Track quality 100.0 % Test CRC D9DFD390 Copy CRC D9DFD390 Accurately ripped (confidence 2) [B4EB3873] (AR v2) Copy OK
Track 5
Filename E:\Dem GOOD Rips\Mein\A.Y.B. Force - 2006 - Lost Breaks [CD FLAC]\05 Going, Going, Gone.wav
Peak level 100.0 % Extraction speed 2.1 X Track quality 100.0 % Test CRC 67D3034E Copy CRC 67D3034E Accurately ripped (confidence 2) [58FA0DF2] (AR v2) Copy OK
Track 6
Filename E:\Dem GOOD Rips\Mein\A.Y.B. Force - 2006 - Lost Breaks [CD FLAC]\06 Marry-Go-Round.wav
Peak level 100.0 % Extraction speed 2.0 X Track quality 100.0 % Test CRC E10D87C3 Copy CRC E10D87C3 Accurately ripped (confidence 2) [2A292DFE] (AR v2) Copy OK
Track 7
Filename E:\Dem GOOD Rips\Mein\A.Y.B. Force - 2006 - Lost Breaks [CD FLAC]\07 Ultazz.wav
Peak level 100.0 % Extraction speed 1.2 X Track quality 100.0 % Test CRC 542331A8 Copy CRC 542331A8 Accurately ripped (confidence 2) [44ABB262] (AR v2) Copy OK
Track 8
Filename E:\Dem GOOD Rips\Mein\A.Y.B. Force - 2006 - Lost Breaks [CD FLAC]\08 A.Y.Boogaloo.wav
Pre-gap length 0:00:00.25
Peak level 100.0 % Extraction speed 2.1 X Track quality 100.0 % Test CRC 1F4ACCA6 Copy CRC 1F4ACCA6 Accurately ripped (confidence 2) [B0A8DA2B] (AR v2) Copy OK
Track 9
Filename E:\Dem GOOD Rips\Mein\A.Y.B. Force - 2006 - Lost Breaks [CD FLAC]\09 Ulticut Live From xxx#2.wav
Pre-gap length 0:00:00.25
Peak level 100.0 % Extraction speed 0.9 X Track quality 100.0 % Test CRC 95A74036 Copy CRC 95A74036 Accurately ripped (confidence 2) [81374DA9] (AR v2) Copy OK
Track 10
Filename E:\Dem GOOD Rips\Mein\A.Y.B. Force - 2006 - Lost Breaks [CD FLAC]\10 Breaking Point.wav
Pre-gap length 0:00:00.15
Peak level 100.0 % Extraction speed 2.0 X Track quality 100.0 % Test CRC 90DC0190 Copy CRC 90DC0190 Accurately ripped (confidence 2) [C6FF3442] (AR v2) Copy OK
Track 11
Filename E:\Dem GOOD Rips\Mein\A.Y.B. Force - 2006 - Lost Breaks [CD FLAC]\11 Wild Pitch.wav
Peak level 100.0 % Extraction speed 2.2 X Track quality 100.0 % Test CRC 109681BE Copy CRC 109681BE Accurately ripped (confidence 2) [880D6C43] (AR v2) Copy OK
Track 12
Filename E:\Dem GOOD Rips\Mein\A.Y.B. Force - 2006 - Lost Breaks [CD FLAC]\12 Carioca River.wav
Pre-gap length 0:00:00.25
Peak level 100.0 % Extraction speed 2.1 X Track quality 100.0 % Test CRC 38D7C578 Copy CRC 38D7C578 Accurately ripped (confidence 2) [0808B9C3] (AR v2) Copy OK
Track 13
Filename E:\Dem GOOD Rips\Mein\A.Y.B. Force - 2006 - Lost Breaks [CD FLAC]\13 From Darkside.wav
Pre-gap length 0:00:00.25
Peak level 100.0 % Extraction speed 1.1 X Track quality 99.8 % Test CRC 85402990 Copy CRC 85402990 Accurately ripped (confidence 2) [339E2F06] (AR v2) Copy OK
Track 14
Filename E:\Dem GOOD Rips\Mein\A.Y.B. Force - 2006 - Lost Breaks [CD FLAC]\14 Hardboiled.wav
Peak level 100.0 % Extraction speed 2.1 X Track quality 100.0 % Test CRC 6E85A791 Copy CRC 6E85A791 Accurately ripped (confidence 2) [5FE908F8] (AR v2) Copy OK
Track 15
Filename E:\Dem GOOD Rips\Mein\A.Y.B. Force - 2006 - Lost Breaks [CD FLAC]\15 Giant Swing.wav
Peak level 100.0 % Extraction speed 2.1 X Track quality 100.0 % Test CRC 254C9F62 Copy CRC 254C9F62 Accurately ripped (confidence 2) [85BA29DD] (AR v2) Copy OK
Track 16
Filename E:\Dem GOOD Rips\Mein\A.Y.B. Force - 2006 - Lost Breaks [CD FLAC]\16 Ulticut Live From xxx#8.wav
Pre-gap length 0:00:00.25
Peak level 93.9 % Extraction speed 1.0 X Track quality 100.0 % Test CRC 39EE300E Copy CRC 39EE300E Accurately ripped (confidence 2) [596AF82B] (AR v2) Copy OK
Track 17
Filename E:\Dem GOOD Rips\Mein\A.Y.B. Force - 2006 - Lost Breaks [CD FLAC]\17 Endless Dawn.wav
Pre-gap length 0:00:00.25
Peak level 100.0 % Extraction speed 2.2 X Track quality 100.0 % Test CRC 2360EF55 Copy CRC 2360EF55 Accurately ripped (confidence 2) [317CF71C] (AR v2) Copy OK
Track 18
Filename E:\Dem GOOD Rips\Mein\A.Y.B. Force - 2006 - Lost Breaks [CD FLAC]\18 Musica Camp.wav
Pre-gap length 0:00:29.25
Peak level 100.0 % Extraction speed 2.1 X Track quality 100.0 % Test CRC A3A12100 Copy CRC A3A12100 Accurately ripped (confidence 2) [DBC8A3A7] (AR v2) Copy OK
All tracks accurately ripped
No errors occurred
End of status report
---- CUETools DB Plugin V2.1.6
[CTDB TOCID: 5IcFhWf6TovXEBGla8WxwITsO_8-] foundSubmit result: 5IcFhWf6TovXEBGla8WxwITsO_8- has been confirmedTrack | CTDB Status 1 | (2/2) Accurately ripped 2 | (2/2) Accurately ripped 3 | (2/2) Accurately ripped 4 | (2/2) Accurately ripped 5 | (2/2) Accurately ripped 6 | (2/2) Accurately ripped 7 | (2/2) Accurately ripped 8 | (2/2) Accurately ripped 9 | (2/2) Accurately ripped 10 | (2/2) Accurately ripped 11 | (2/2) Accurately ripped 12 | (2/2) Accurately ripped 13 | (2/2) Accurately ripped 14 | (2/2) Accurately ripped 15 | (2/2) Accurately ripped 16 | (2/2) Accurately ripped 17 | (2/2) Accurately ripped 18 | (2/2) Accurately ripped
==== Log checksum AEC5D7393B32BE3C16734C3A16BAFD1A4DFAB8EE09EE6FFC59516A67F4963C33 ====

Содержание индексной карты (.CUE)

REM GENRE "Acid Jazz"REM DATE 2006REM DISCID EB0D4512REM COMMENT "ExactAudioCopy v1.3"CATALOG 4995879237298PERFORMER "A.Y.B. Force"TITLE "Lost Breaks"FILE "01 - Doyouwannasee.wav" WAVE TRACK 01 AUDIO TITLE "Doyouwannasee" PERFORMER "A.Y.B. Force" INDEX 01 00:00:00FILE "02 - Last Nite Was Da Nite.wav" WAVE TRACK 02 AUDIO TITLE "Last Nite Was Da Nite" PERFORMER "A.Y.B. Force" INDEX 01 00:00:00FILE "03 - Asanova.wav" WAVE TRACK 03 AUDIO TITLE "Asanova" PERFORMER "A.Y.B. Force" INDEX 01 00:00:00 TRACK 04 AUDIO TITLE "Sunshine Hair" PERFORMER "A.Y.B. Force" INDEX 00 03:55:36FILE "04 - Sunshine Hair.wav" WAVE INDEX 01 00:00:00FILE "05 - Going, Going, Gone.wav" WAVE TRACK 05 AUDIO TITLE "Going, Going, Gone" PERFORMER "A.Y.B. Force" INDEX 01 00:00:00FILE "06 - Marry-Go-Round.wav" WAVE TRACK 06 AUDIO TITLE "Marry-Go-Round" PERFORMER "A.Y.B. Force" INDEX 01 00:00:00FILE "07 - Ultazz.wav" WAVE TRACK 07 AUDIO TITLE "Ultazz" PERFORMER "A.Y.B. Force" INDEX 01 00:00:00 TRACK 08 AUDIO TITLE "A.Y.Boogaloo" PERFORMER "A.Y.B. Force" INDEX 00 00:36:74FILE "08 - A.Y.Boogaloo.wav" WAVE INDEX 01 00:00:00 TRACK 09 AUDIO TITLE "Ulticut Live from xxx No.2" PERFORMER "A.Y.B. Force" INDEX 00 03:38:51FILE "09 - Ulticut Live from xxx No.2.wav" WAVE INDEX 01 00:00:00 TRACK 10 AUDIO TITLE "Breaking Point" PERFORMER "A.Y.B. Force" INDEX 00 00:24:40FILE "10 - Breaking Point.wav" WAVE INDEX 01 00:00:00FILE "11 - Wild Pitch.wav" WAVE TRACK 11 AUDIO TITLE "Wild Pitch" PERFORMER "A.Y.B. Force" INDEX 01 00:00:00 TRACK 12 AUDIO TITLE "Carioca River" PERFORMER "A.Y.B. Force" INDEX 00 05:16:32FILE "12 - Carioca River.wav" WAVE INDEX 01 00:00:00 TRACK 13 AUDIO TITLE "From Darkside" PERFORMER "A.Y.B. Force" INDEX 00 03:43:21FILE "13 - From Darkside.wav" WAVE INDEX 01 00:00:00FILE "14 - Hardboiled.wav" WAVE TRACK 14 AUDIO TITLE "Hardboiled" PERFORMER "A.Y.B. Force" INDEX 01 00:00:00FILE "15 - Giant Swing.wav" WAVE TRACK 15 AUDIO TITLE "Giant Swing" PERFORMER "A.Y.B. Force" INDEX 01 00:00:00 TRACK 16 AUDIO TITLE "Ulticut Live from xxx No.8" PERFORMER "A.Y.B. Force" INDEX 00 04:40:06FILE "16 - Ulticut Live from xxx No.8.wav" WAVE INDEX 01 00:00:00 TRACK 17 AUDIO TITLE "Endless Dawn" PERFORMER "A.Y.B. Force" INDEX 00 00:27:48FILE "17 - Endless Dawn.wav" WAVE INDEX 01 00:00:00 TRACK 18 AUDIO TITLE "Musica Camp" PERFORMER "A.Y.B. Force" INDEX 00 05:45:02FILE "18 - Musica Camp.wav" WAVE INDEX 01 00:00:00

Отчет CUETools

[CUETools log; Date: 05.02.2019 2:04:18; Version: 2.1.6][CTDB TOCID: 5IcFhWf6TovXEBGla8WxwITsO_8-] found.Track | CTDB Status 1 | (5/5) Accurately ripped 2 | (5/5) Accurately ripped 3 | (5/5) Accurately ripped 4 | (5/5) Accurately ripped 5 | (5/5) Accurately ripped 6 | (5/5) Accurately ripped 7 | (5/5) Accurately ripped 8 | (5/5) Accurately ripped 9 | (5/5) Accurately ripped 10 | (5/5) Accurately ripped 11 | (5/5) Accurately ripped 12 | (5/5) Accurately ripped 13 | (5/5) Accurately ripped 14 | (5/5) Accurately ripped 15 | (5/5) Accurately ripped 16 | (5/5) Accurately ripped 17 | (5/5) Accurately ripped 18 | (5/5) Accurately ripped[AccurateRip ID: 0021b1d8-01c893de-eb0d4512] found.Track [ CRC | V2 ] Status 01 [544f50d3|d1b79ce0] (0+2/2) Accurately ripped 02 [854396b7|a884f65d] (0+2/2) Accurately ripped 03 [19ce9899|378106e6] (0+2/2) Accurately ripped 04 [de8b1640|b4eb3873] (0+2/2) Accurately ripped 05 [330105f4|58fa0df2] (0+2/2) Accurately ripped 06 [f34cc34e|2a292dfe] (0+2/2) Accurately ripped 07 [02ba9fcf|44abb262] (0+2/2) Accurately ripped 08 [07f63ef4|b0a8da2b] (0+2/2) Accurately ripped 09 [30bef5cf|81374da9] (0+2/2) Accurately ripped 10 [9b738a8c|c6ff3442] (0+2/2) Accurately ripped 11 [49e704f9|880d6c43] (0+2/2) Accurately ripped 12 [43684cbf|0808b9c3] (0+2/2) Accurately ripped 13 [a70f8445|339e2f06] (0+2/2) Accurately ripped 14 [5059bfe9|5fe908f8] (0+2/2) Accurately ripped 15 [c64afcc9|85ba29dd] (0+2/2) Accurately ripped 16 [852b171a|596af82b] (0+2/2) Accurately ripped 17 [edd21cc6|317cf71c] (0+2/2) Accurately ripped 18 [b4e130b5|dbc8a3a7] (0+2/2) Accurately ripped
Track Peak [ CRC32 ] [W/O NULL] [ LOG ] -- 100,0 [6010EC80] [6F41E596] 01 100,0 [25ACD93E] [AB0412E5] CRC32 02 100,0 [31008FFB] [5D91D41B] CRC32 03 100,0 [DF55B4CA] [F9637C59] CRC32 04 100,0 [D9DFD390] [4D70F11C] CRC32 05 100,0 [67D3034E] [2A3C8095] CRC32 06 100,0 [E10D87C3] [06B24DC3] CRC32 07 100,0 [542331A8] [160F552B] CRC32 08 100,0 [1F4ACCA6] [0EAFF78A] CRC32 09 100,0 [95A74036] [D68DF504] CRC32 10 100,0 [90DC0190] [501D46AF] CRC32 11 100,0 [109681BE] [473E2CED] CRC32 12 100,0 [38D7C578] [660BEA86] CRC32 13 100,0 [85402990] [DB9EE982] CRC32 14 100,0 [6E85A791] [67AFB5E5] CRC32 15 100,0 [254C9F62] [2395EC9B] CRC32 16 93,9 [39EE300E] [D55435F9] CRC32 17 100,0 [2360EF55] [2D72CFF3] CRC32 18 100,0 [A3A12100] [2412965E] CRC32


[geo-torrent.biz]_t_5685108.torrent
Torrent: Registered ·  [ 2019-02-06 19:59 ] ·  ea6b1e2d63b4ad3ca85d3801c370c8b236c0a56a

15 KB

Status: checked
Completed: 0 times
Size: 345 MB
Rating: 
(Votes: 0)
Say thanks: 0  Thanks
Похожие темы
[Profile]    [PM]
Display posts from previous:    
Reply to topic

The time now is: Today 06:52

All times are GMT + 7 Hours



You cannot post new topics in this forum
You cannot reply to topics in this forum
You cannot edit your posts in this forum
You cannot delete your posts in this forum
You cannot vote in polls in this forum
You cannot attach files in this forum
You can download files in this forum