[TR24][OF] Jemapur - Microsleep - 2011 (Abstract, Experimental, Leftfield, IDM, Glitch)

Ответить на тему
Статистика раздачи [Обновить пиров]
Размер:  611 MB   |    Зарегистрирован:  13 дней   |    Скачан:  0 раз

Полного источника не было: Никогда

 
   
 
 
 
Автор Сообщение

torrentc.info

Создавать темы 06-Фев-2019 03:18

[Цитировать]

Jemapur - Microsleep
Формат файла записи/Источник записи: [TR24][OF]
Наличие водяных знаков: Нет
Год издания/переиздания диска: 2011
Жанр: Abstract, Experimental, Leftfield, IDM, Glitch
Издатель (лейбл): Lakho
Продолжительность: 00:51:26
Наличие сканов в содержимом раздачи: Только обложка альбома
Треклист:
01. Day Light (2:59)
02. Microsleep (3:25)
03. Particles and Fields (3:43)
04. Gage Lamp (4:10)
05. Reconstruction #1 (5:01)
06. After Dusk (2:05)
07. Exitism[a] (3:39)
08. Asleep on the Floor (4:37)
09. Avian Gritty (6:38)
10. Odradek (5:40)
11. Applesauce Tax (0:51)
12. Plastic Garden (4:33)
13. The Confluence (4:05)
Формат файла: FLAC (*.flac)
Тип рипа: tracks
Разрядность: 24/48
Формат файла: WAV (flac.ape.wv)
Количество каналов: 2.0

Лог проверки качества

foobar2000 1.4.2 / Dynamic Range Meter 1.1.1log date: 2019-02-05 22:28:26
--------------------------------------------------------------------------------Analyzed: Jemapur / Microsleep--------------------------------------------------------------------------------
DR Peak RMS Duration Track--------------------------------------------------------------------------------DR7 0.00 dB -10.19 dB 2:59 01-Day LightDR6 0.00 dB -8.40 dB 3:25 02-MicrosleepDR6 0.00 dB -7.76 dB 3:43 03-Particles and FieldsDR6 0.00 dB -8.01 dB 4:10 04-Gage LampDR7 0.00 dB -8.83 dB 5:01 05-Reconstruction No.1DR4 0.00 dB -6.00 dB 2:05 06-After DuskDR7 0.00 dB -8.52 dB 3:39 07-Exitism[a]DR6 0.00 dB -10.40 dB 4:37 08-Asleep on the FloorDR7 0.00 dB -9.18 dB 6:38 09-Avian GrittyDR6 0.00 dB -6.92 dB 5:40 10-OdradekDR8 0.00 dB -8.84 dB 0:51 11-Applesauce TaxDR7 0.00 dB -8.63 dB 4:33 12-Plastic GardenDR6 0.00 dB -9.52 dB 4:05 13-The Confluence--------------------------------------------------------------------------------
Number of tracks: 13Official DR value: DR6
Samplerate: 48000 HzChannels: 2Bits per sample: 24Bitrate: 1557 kbpsCodec: FLAC================================================================================
Источник (релизер): fungusamungus, bandcamp


[torrentc.info]_t_5685470.torrent
Торрент: Зарегистрирован ·  [ 2019-02-06 03:17 ] ·  7eea710ce201a4c46ef06781c68f70eebff8972d

13 KB

Статус: проверено
Скачан: 0 раз
Размер: 611 MB
Оценка: 
(Голосов: 0)
Сказали спасибо: 0  Спасибо
Похожие темы
[Профиль]    [ЛС]
Показать сообщения:    
Ответить на тему

Текущее время: Сегодня 13:48

Часовой пояс: GMT + 7



Вы не можете начинать темы
Вы не можете отвечать на сообщения
Вы не можете редактировать свои сообщения
Вы не можете удалять свои сообщения
Вы не можете голосовать в опросах
Вы не можете прикреплять файлы к сообщениям
Вы можете скачивать файлы