Улыбайтесь, господа! (Ирина Голубева) [2018, Документальный, история, эстрада, IPTVRip]

Ответить на тему
Статистика раздачи [Обновить пиров]
Размер:  708 MB   |    Зарегистрирован:  18 дней   |    Скачан:  0 раз

Полного источника не было: Никогда

 
   
 
 
 
Автор Сообщение

torrentc.info

Создавать темы 31-Янв-2019 20:05

[Цитировать]

Улыбайтесь, господа!
Дата/Год выхода: 2018
Страна: Россия, "Бемис Про"
Жанр: Документальный, история, эстрада
Продолжительность: 00:52:03
Перевод: Не требуется
Русские субтитры: нет
Режиссер: Ирина Голубева
Описание: В советское время артисты разговорного жанра по популярности опережали звёзд эстрады и экрана. Правительственные концерты зрители смотрели ради второй части, когда на сцену выходили они – сатирики. Их выступления были как глоток свежего воздуха. Времена изменились, но юмористы стали даже более востребованы. Над чем смеялись вчера и смеются сегодня? Кто они – лучшие юмористы века?
качество: IPTVRip
формат: AVI
Видео: 720x400 (1.80:1), 25 fps, XviD build 73 ~1699 kbps avg, 0.24 bit/pixel
Аудио: 48 kHz, AC3 Dolby Digital, 2/0 (L,R) ch, ~192.00 kbps avg

Mediainfo

Полное имя : D:\gotov\Улыбайтесь господа.2018.IPTVRip.aviФормат файла : AVIФормат файла/Информация : Audio Video InterleaveРазмер файла : 708 МбайтПродолжительность : 52 м. 3 с.Общий поток : 1902 Кбит/секПрограмма кодирования : VirtualDubMod 1.5.10.3 | www.virtualdub-fr.org || (build 2550/release)Библиотека кодирования : VirtualDubMod build 2550/release
ВидеоИдентификатор : 0Формат файла : MPEG-4 VisualПрофиль формата : Advanced Simple@L5Параметр BVOP формата : 2Параметр QPel формата : НетПараметр GMC формата : Без точки переходаПараметр матрицы формата : Default (MPEG)Идентификатор кодека : XVIDИдентификатор кодека/Подсказка : XviDПродолжительность : 52 м. 3 с.Битрейт : 1700 Кбит/секШирина : 720 пикселейВысота : 400 пикселейСоотношение сторон : 16:9Частота кадров : 25,000 кадров/секЦветовое пространство : YUVСубдискретизация насыщенности : 4:2:0Битовая глубина : 8 битТип развёртки : ПрогрессивнаяМетод сжатия : С потерямиБит/(Пиксели*Кадры) : 0.236Размер потока : 633 Мбайт (89%)Библиотека кодирования : XviD 73
АудиоИдентификатор : 1Формат файла : AC-3Формат файла/Информация : Audio Coding 3Расширение режима : CM (complete main)Параметр Endianness формата : BigИдентификатор кодека : 2000Продолжительность : 52 м. 3 с.Вид битрейта : ПостоянныйБитрейт : 192 Кбит/секКаналы : 2 каналаРасположение каналов : Front: L RЧастота : 48,0 КГцЧастота кадров : 31,250 кадров/сек (1536 spf)Метод сжатия : С потерямиРазмер потока : 71,5 Мбайт (10%)Выравнивание : Разделение по промежуткамПродолжительность промежутка : 40 мс. (1,00 видеокадр)Время предзагрузки промежутка : 500 мс.

Скриншоты

отредактировал: [url=profile.php?mode=viewprofile&u=3980972]SergeyJD[/url]


[torrentc.info]_t_5670400.torrent
Торрент: Зарегистрирован ·  [ 2019-01-31 20:05 ] ·  358bf291a8856c124ddfdf7247a5ba0e60e29b78

8 KB

Статус: проверено
Скачан: 0 раз
Размер: 708 MB
Оценка: 
(Голосов: 0)
Сказали спасибо: 0  Спасибо
Похожие темы
[Профиль]    [ЛС]
Показать сообщения:    
Ответить на тему

Текущее время: Сегодня 13:54

Часовой пояс: GMT + 7



Вы не можете начинать темы
Вы не можете отвечать на сообщения
Вы не можете редактировать свои сообщения
Вы не можете удалять свои сообщения
Вы не можете голосовать в опросах
Вы не можете прикреплять файлы к сообщениям
Вы можете скачивать файлы