Берлинские легавые / Dogs of Berlin / Сезон: 1 / Серии: 1-3 из 10 (Кристиан Альварт / Christian Alvart) [2018, Германия, Боевик, триллер, драма, криминал, WEB-DLRip] MVO (NewStudio) + Original

Reply to topic
DL-List and Torrent activity [Update пиров]
Size:  2.09 GB   |    Registered:  8 months 28 days   |    Completed:  1 time

Seeder not seen: 8 months 25 days

 
   
 
 
 
Author Message

Пушистый

Post 17-Jan-2019 22:15

[Quote]

Берлинские легавые | Dogs of Berlin- Год выхода: 2018
Страна: Германия
Жанр: Боевик, триллер, драма, криминал
Продолжительность: ~ 00:45:00-Перевод: Профессиональный (многоголосый закадровый) | -Режиссёр: Кристиан Альварт / Christian Alvart-В ролях: Феликс Крамер, Анна Мария Мюэ, Урс Рехн, Катарина Шюттлер, Фахри Огюн Ярдим, Себастьян Ахилес, Антонио Ваннек, Ханна Херцшпрунг-Описание: Два детектива объединяются для расследования резонансного убийства футбольной звезды. В числе подозреваемых — банда неонацистов, мафия и даже турецкий клан, связанный с покойным.- -[url=tracker.php?g=foreign_serials&nm=Dogs%20of%20Berlin]Ссылка на предыдущие и альтернативные раздачи[/url]-Качество: WEB-DLRip
Формат файла: AVI
Видео: XviD, 704x352 (2,000), 25,000 кадров/сек, ~1500 Кбит/сек
Аудио Rus: MP3, 48 kHz, 2 ch, 128 Кбит/сек |
Аудио Deu: MP3, 48 kHz, 2 ch, 128 Кбит/сек
Субтитры: Отсутствуют
Реклама: Отсутствует-

✘ ✘

• Очистка от рекламы: Atla22
-

Список серий

01. Очень важная персона / V.I.P.
02. Команда / Mannschaft
03. Встреча / Begegnung
-

MediaInfo

ОбщееПолное имя : E:\Dogs.of.Berlin.S01E01.WEB-DLRip.RGzsTorrentc.[Wentworth_Miller].aviФормат файла : AVIФормат файла/Информация : Audio Video InterleaveРазмер файла : 778 МбайтПродолжительность : 1 ч. 1 м.Общий поток : 1770 Кбит/секПрограмма кодирования : VirtualDubMod 1.5.10.3 | www.virtualdub-fr.org || (build 2550/release)Библиотека кодирования : VirtualDubMod build 2550/release
ВидеоИдентификатор : 0Формат файла : MPEG-4 VisualПрофиль формата : Advanced Simple@L5Настройки формата : BVOP2Параметр BVOP формата : 2Параметр QPel формата : НетПараметр GMC формата : Без точки переходаПараметр матрицы формата : Default (MPEG)Идентификатор кодека : XVIDИдентификатор кодека/Подсказка : XviDПродолжительность : 1 ч. 1 м.Битрейт : 1500 Кбит/секШирина : 704 пикселяВысота : 352 пикселяСоотношение сторон : 2,000Частота кадров : 25,000 кадров/секЦветовое пространство : YUVСубдискретизация насыщенности : 4:2:0Битовая глубина : 8 битТип развёртки : ПрогрессивнаяМетод сжатия : С потерямиБит/(Пиксели*Кадры) : 0.242Размер потока : 659 Мбайт (85%)Библиотека кодирования : XviD 61
Аудио #1Идентификатор : 1Формат файла : MPEG AudioВерсия формата : Version 1Профиль формата : Layer 3Идентификатор кодека : 55Идентификатор кодека/Подсказка : MP3Продолжительность : 1 ч. 1 м.Вид битрейта : ПостоянныйБитрейт : 128 Кбит/секКаналы : 2 каналаЧастота : 48,0 КГцЧастота кадров : 41,667 кадра/сек (1152 SPF)Метод сжатия : С потерямиРазмер потока : 56,3 Мбайт (7%)Выравнивание : Соединение по промежуткамПродолжительность промежутка : 40 мс. (1,00 видеокадр)Время предзагрузки промежутка : 504 мс.Библиотека кодирования : LAME3.98rНастройки программы : -m s -V 4 -q 2 -lowpass 17 -b 128
Аудио #2Идентификатор : 2Формат файла : MPEG AudioВерсия формата : Version 1Профиль формата : Layer 3Настройки формата : Joint stereo / MS StereoИдентификатор кодека : 55Идентификатор кодека/Подсказка : MP3Продолжительность : 1 ч. 1 м.Вид битрейта : ПостоянныйБитрейт : 128 Кбит/секКаналы : 2 каналаЧастота : 48,0 КГцМетод сжатия : С потерямиРазмер потока : 56,3 Мбайт (7%)Выравнивание : Соединение по промежуткамПродолжительность промежутка : 40 мс. (1,00 видеокадр)Время предзагрузки промежутка : 504 мс.Библиотека кодирования : LAME3.97
-

Скриншоты

-

Внимание! Раздача ведётся путём добавления новых серий

Внимание! Раздача ведётся путём добавления новых серий; при каждом добавлении создаётся новый торрент. Чтобы начать докачку новой серии, пользователям необходимо сделать следующее:
(1) остановить скачивание,
(2) удалить старый торрент у себя из клиента (старые серии удалять не надо),
(3) скачать новый торрент и запустить его у себя в клиенте вместо старого, при этом указать клиенту путь в старую папку куда и должно происходить скачивание новых серий.
Ваш клиент при этом должен произвести хеширование (проверку) старой папки (если не производит сам - помогите ему сделать это), и будет докачивать только те серии которых у вас ещё нет. Старые серии при этом не удаляются, а продолжают раздаваться!
Eсли вы уже удалили старые серии, то предотвратить повторную закачку старых серий можно, отжав галочку в соответствующих местах при запуске нового торрента. По возможности, желательно не удалять старые серии как можно дольше чтобы релизёр не столько продолжал раздавать старые серии, а смог сконцентрироваться на новых.


[geo-torrent.biz]_t_5667170.torrent
Torrent: Registered ·  [ 2019-01-17 22:15 ] ·  23455eb7763209527e2e70c100481022c7f11489

11 KB

Status: checked
Completed: 1 times
Size: 2.09 GB
Rating: 
(Votes: 0)
Say thanks: 0  Thanks
Похожие темы
[Profile]    [PM]
Display posts from previous:    
Reply to topic

The time now is: Today 09:23

All times are GMT + 7 Hours



You cannot post new topics in this forum
You cannot reply to topics in this forum
You cannot edit your posts in this forum
You cannot delete your posts in this forum
You cannot vote in polls in this forum
You cannot attach files in this forum
You can download files in this forum