МакМафия / McMafia / Сезон: 1 / Серии: 1-8 из 8 (Джеймс Уоткинс) [2018, Великобритания, США, Триллер, драма, криминал, BDRip] MVO (TVShows)

Ответить на тему
Статистика раздачи [Обновить пиров]
Размер:  7.57 GB   |    Зарегистрирован:  7 дней   |    Скачан:  0 раз

Полного источника не было: Никогда

 
   
 
 
 
Автор Сообщение

torrentc.info

Создавать темы 11-Янв-2019 20:53

[Цитировать]

МакМафия | McMafia- Год выхода: 2018
Страна: Великобритания, США
Жанр: триллер, драма, криминал
Продолжительность: ~ 00:55:00
Перевод: Любительский (многоголосый закадровый) TVShows--Режиссёр: Джеймс Уоткинс
В ролях: Джеймс Нортон, Мераб Нинидзе, Кирилл Пирогов, Джульет Райлэнс, Ошри Коэн, Фэй Марсей, Алексей Серебряков, Мария Шукшина, Дэвид Стрэтэйрн и др.-Описание: Алекс Гудман, сын русских эмигрантов, пытается выйти из тени своей бывшей мафиозной семейки и создать личный бизнес и семью с подругой Ребеккой. Но прошлое семьи даёт о себе знать, и Алекс вынужден внедриться в преступный мир, чтобы защитить тех, кого любит.--
Качество: BDRip BluRay.filmsclub
Формат файла: AVI
Видео: XVID, 720x400, 25.000 fps, ~2000 kbps avg, ~0.278 bit/pixel
Аудио Rus: AC3, 48.0 KHz, 6 channels, 384 kbps
Субтитры: отсутствуют
Реклама отсутствует
[url=tracker.php?g=foreign_serials&nm=McMafia]Все раздачи сериала[/url]

MediaInfo

General
Complete name : G:\МакМафия (Сезон 1) TVShows\McMafia.S01E01.BDRip.RGzsTorrentc.Celta88.avi
Format : AVI
Format/Info : Audio Video Interleave
File size : 961 MiB
Duration : 56 min 8 s
Overall bit rate : 2 393 kb/s
Writing application : VirtualDubMod 1.5.10.2 (build 2540/release)
Writing library : VirtualDubMod build 2540/release
Video
ID : 0
Format : MPEG-4 Visual
Format profile : Advanced Simple@L5
Format settings, BVOP : 1
Format settings, QPel : No
Format settings, GMC : No warppoints
Format settings, Matrix : Default (MPEG)
Codec ID : XVID
Codec ID/Hint : XviD
Duration : 56 min 8 s
Bit rate : 1 999 kb/s
Width : 720 pixels
Height : 400 pixels
Display aspect ratio : 16:9
Frame rate : 25.000 FPS
Color space : YUV
Chroma subsampling : 4:2:0
Bit depth : 8 bits
Scan type : Progressive
Compression mode : Lossy
Bits/(Pixel*Frame) : 0.278
Stream size : 803 MiB (84%)
Writing library : XviD 1.2.0.dev47 (UTC 2006-11-01)
Audio
ID : 1
Format : AC-3
Format/Info : Audio Coding 3
Mode extension : CM (complete main)
Format settings, Endianness : Big
Codec ID : 2000
Duration : 56 min 8 s
Bit rate mode : Constant
Bit rate : 384 kb/s
Channel(s) : 6 channels
Channel positions : Front: L C R, Side: L R, LFE
Sampling rate : 48.0 kHz
Frame rate : 31.250 FPS (1536 spf)
Bit depth : 16 bits
Compression mode : Lossy
Stream size : 154 MiB (16%)
Alignment : Split accross interleaves
Interleave, duration : 40 ms (1.00 video frame)
Interleave, preload duratio : 500 ms

Скриншоты



[torrentc.info]_t_5667314.torrent
Торрент: Зарегистрирован ·  [ 2019-01-11 20:53 ] ·  b2044db82e16b77a8dd2f917ed3fdf9dd5560f26

39 KB

Статус: проверено
Скачан: 0 раз
Размер: 7.57 GB
Оценка: 
(Голосов: 0)
Сказали спасибо: 0  Спасибо
Похожие темы
[Профиль]    [ЛС]
Показать сообщения:    
Ответить на тему

Текущее время: Сегодня 05:15

Часовой пояс: GMT + 7



Вы не можете начинать темы
Вы не можете отвечать на сообщения
Вы не можете редактировать свои сообщения
Вы не можете удалять свои сообщения
Вы не можете голосовать в опросах
Вы не можете прикреплять файлы к сообщениям
Вы можете скачивать файлы