Малышарики / Серии: 1-60 из 120 (Марина Мошкова) [2015-2017, Обучающий мультфильм, BDRip 1080p, RUS]

Ответить на тему
Статистика раздачи [Обновить пиров]
Размер:  37.59 GB   |    Зарегистрирован:  2 месяца 10 дней   |    Скачан:  0 раз

Полного источника не было: Никогда

 
   
 
 
 
Автор Сообщение

Генри

Создавать темы 11-Янв-2019 03:15

[Цитировать]

Малышарики: Сборник 1 (BDRip)
-Страна: Россия
Студия: Студия Анимации "Петербург"
Жанр: Обучающий мультфильм
Год выхода: 2015-2017
Продолжительность: 05:13:34
Русские субтитры: нет-Режиссёр: Марина Мошкова-Описание: "Малышарики" - это мир детской игры. Самый её разгар, когда игра неотличима от реальности. Главные персонажи - ожившие игрушки. Их жизнь протекает в квартире, где живет семья с детьми, которая всегда остается за кадром. Горы для них - это сложенные в стопку книги, а цветы в горшках - густой лес. День наступает, когда включают лампу, а ночь - когда её выключают. Поверхности стола может быть морем, а - ленточка ручейком. Малышарики - это детская фантазия. "Малышарики" - это простые сюжеты, основанные на уже знакомых малышу ситуациях; ритмичное, но комфортное для восприятия маленьким ребенком повествование и интерактивные элементы. Главные герои сериала – ожившие игрушки, вместе с которыми ребенок будет изучать мир, развиваться физически и эмоционально, учиться дружить и общаться со сверстниками и взрослыми. "Малышарики" - первый развивающий проект в жизни малыша! Растите и развивайтесь вместе с "Малышариками"! Проект разработан при участии детских психологов и педагогов.-Дополнительная информация: BDRip сделан из раздачи Blu-ray disc 1080p "http://Torrentc/forum/viewtopic.php?t=5457967"-Список серий:
1. Качели; 2. Прогулка; 3. Фломастеры; 4. Ракета; 5. Следы;
6. Башня; 7. Красная шапочка; 8. Ёлка; 9. Солнышко; 10. Попрыгушки;
11. Ручейки; 12. Машинка; 13. Прятки; 14. Домики; 15. Ведёрко;
16. На площадке; 17. Самокат; 18. Футбол; 19. Спокойной ночи, Звёздочка; 20. Шмяк;
21. Цветок; 22. Просыпайся; 23. Самолётик; 24. Лошадка; 25. Рыбалка;
26. Мозаика; 27. Ушки; 28. Подружки; 29. Обруч; 30. Стёклышко;
31. Зеленука; 32. Бусики; 33. Сказочка; 34. Сладкоежки; 35. Поехали!;
36. Загадка; 37. Секретик; 38. Труба; 39. Пандочкино море; 40. Считалочка;
41. Вертолёт; 42. Дерево; 43. Шарик; 44. Мишка; 45. Пчёлки;
46. Давай играть!; 47. Печенье; 48. Вертушки; 49. Сюрприз; 50. Магнитик
51. Не скучай!; 52. Колпачок; 53. Сапожки; 54. Гости; 55. Фокус;
56. Книжка; 57. Робот; 58. Чемпионы; 59. Пароход; 60. Ромашка-Качество: BDRip 1080p
Формат файла: MKV
Видео: MPEG-4 AVC Video 1920x1080p (16:9), 24 fps, 15400 kbps
Аудио: LPCM Audio Russian 48 kHz, 2 ch, 24 bit, 2304 kbps
Субтитры: отсутствуют

MediaInfo

ОбщееУникальный идентификатор : 18102016637889355209771045846836746382 (0xD9E5253B35E6A57D07380AD8FC2988E)Полное имя : D:\Малышарики.BDRip.1080p.mkvФормат файла : MatroskaВерсия формата : Version 4Размер файла : 639 МбайтПродолжительность : 5 м. 2 с.Режим общего битрейта : ПеременныйОбщий поток : 17,7 Мбит/секДата кодирования : UTC 2019-01-10 08:27:19Программа кодирования : mkvmerge v30.1.0 ('Forever And More') 64-bitБиблиотека кодирования : libebml v1.3.6 + libmatroska v1.4.9
ВидеоИдентификатор : 1Формат файла : AVCФормат файла/Информация : Advanced Video CodecПрофиль формата : High@L4Настройки формата : CABAC / 2 Ref FramesПараметр CABAC формата : ДаПараметр RefFrames формата : 2 кадраИдентификатор кодека : V_MPEG4/ISO/AVCПродолжительность : 5 м. 2 с.Вид битрейта : ПеременныйБитрейт : 15,4 Мбит/секМаксимальный битрейт : 22,0 Мбит/секШирина : 1920 пикселейВысота : 1080 пикселейСоотношение сторон : 16:9Режим частоты кадров : ПостоянныйЧастота кадров : 24,000 кадра/секЦветовое пространство : YUVСубдискретизация насыщенности : 4:2:0Битовая глубина : 8 битТип развёртки : ПрогрессивнаяБит/(Пиксели*Кадры) : 0.310Размер потока : 555 Мбайт (87%)Default : ДаForced : Нет
АудиоИдентификатор : 2Формат файла : PCMНастройки формата : Little / SignedИдентификатор кодека : A_PCM/INT/LITПродолжительность : 5 м. 2 с.Вид битрейта : ПостоянныйБитрейт : 2304 Кбит/секКаналы : 2 каналаЧастота : 48,0 КГцЧастота кадров : 200,000 кадров/сек (240 SPF)Битовая глубина : 24 битРазмер потока : 83,0 Мбайт (13%)Язык : RussianDefault : ДаForced : Нет

Скриншоты






[torrentc.info]_t_5672317.torrent
Торрент: Зарегистрирован ·  [ 2019-01-11 03:15 ] ·  c4a5eacaca398d388353c0476773a7c2aca8c80f

382 KB

Статус: проверено
Скачан: 0 раз
Размер: 37.59 GB
Оценка: 
(Голосов: 0)
Сказали спасибо: 0  Спасибо
Похожие темы
[Профиль]    [ЛС]
Показать сообщения:    
Ответить на тему

Текущее время: Сегодня 01:05

Часовой пояс: GMT + 7



Вы не можете начинать темы
Вы не можете отвечать на сообщения
Вы не можете редактировать свои сообщения
Вы не можете удалять свои сообщения
Вы не можете голосовать в опросах
Вы не можете прикреплять файлы к сообщениям
Вы можете скачивать файлы