Праздник (Алексей Красовский) [2019, комедия, драма, военный, история, WEBRip]

Ответить на тему
Статистика раздачи [Обновить пиров]
Размер:  1.09 GB   |    Зарегистрирован:  8 дней   |    Скачан:  0 раз

Полного источника не было: Никогда

 
   
 
 
 
Автор Сообщение

torrentc.info

Создавать темы 11-Янв-2019 02:12

[Цитировать]

Праздник
Жанр: комедия, драма, военный, история
Год выхода: 2019
Продолжительность: 01:13:33
Режиссёр: Алексей Красовский
В ролях: Алёна Бабенко, Ян Цапник, Анфиса Черных, Тимофей Трибунцев, Павел Табаков, Анастасия Чистякова
Описание: Блокадный Ленинград. В загородном доме Воскресенских, живущих «на особом положении», собираются шесть человек и курица, которую некому приготовить. Раньше этим занималась кухарка, но её у Воскресенских накануне забрали — снаружи наступили тяжёлые времена, да и внутри ситуация тоже нелегкая: младший сын привёл голодную девушку, старшая дочь — незнакомого мужчину, за которого собирается замуж. До Нового Года остались считанные минуты, а количество проблем растёт как снежный ком.
Кинопоиск
Sample
Качество видео: WEBRip
Формат файла: AVI
Видео: 720x400 (1.80:1), 23.976 fps, XviD build 73 ~1920 kbps avg, 0.28 bit/pixel
Аудио: 48 kHz, AC3 Dolby Digital, 2/0 (L,R) ch, ~192 kbps

MediaInfo

General
Complete name : D:\Праздник 2018.avi
Format : AVI
Format/Info : Audio Video Interleave
File size : 1.09 GiB
Duration : 1 h 13 min
Overall bit rate : 2 122 kb/s
Writing application : VirtualDubMod 1.5.10.3 | www.virtualdub-fr.org || (build 2550/release)
Writing library : VirtualDubMod build 2550/release
Video
ID : 0
Format : MPEG-4 Visual
Format profile : Advanced Simple@L5
Format settings : BVOP1
Format settings, BVOP : 1
Format settings, QPel : No
Format settings, GMC : No warppoints
Format settings, Matrix : Default (MPEG)
Codec ID : XVID
Codec ID/Hint : XviD
Duration : 1 h 13 min
Bit rate : 1 921 kb/s
Width : 720 pixels
Height : 400 pixels
Display aspect ratio : 16:9
Frame rate : 23.976 (24000/1001) FPS
Color space : YUV
Chroma subsampling : 4:2:0
Bit depth : 8 bits
Scan type : Progressive
Compression mode : Lossy
Bits/(Pixel*Frame) : 0.278
Stream size : 1 010 MiB (91%)
Writing library : XviD 73
Audio
ID : 1
Format : AC-3
Format/Info : Audio Coding 3
Codec ID : 2000
Duration : 1 h 13 min
Bit rate mode : Constant
Bit rate : 192 kb/s
Channel(s) : 2 channels
Channel positions : Front: L R
Sampling rate : 48.0 kHz
Frame rate : 31.250 FPS (1536 SPF)
Bit depth : 16 bits
Compression mode : Lossy
Stream size : 101 MiB (9%)
Alignment : Split accross interleaves
Interleave, duration : 42 ms (1.00 video frame)
Interleave, preload duratio : 500 ms
Service kind : Complete Main

Скриншоты





[torrentc.info]_t_5668946.torrent
Торрент: Зарегистрирован ·  [ 2019-01-11 02:12 ] ·  0eeb4f3a0775d769c4196a80dc84834f42574395

11 KB

Статус: проверено
Скачан: 0 раз
Размер: 1.09 GB
Оценка: 
(Голосов: 0)
Сказали спасибо: 0  Спасибо
Похожие темы
[Профиль]    [ЛС]
Показать сообщения:    
Ответить на тему

Текущее время: Сегодня 05:11

Часовой пояс: GMT + 7



Вы не можете начинать темы
Вы не можете отвечать на сообщения
Вы не можете редактировать свои сообщения
Вы не можете удалять свои сообщения
Вы не можете голосовать в опросах
Вы не можете прикреплять файлы к сообщениям
Вы можете скачивать файлы