Самые. Самые. Самые: Проект Владимира Познера и Ивана Урганта / 1-5 серии (Валерий Спирин) [2018, Путешествия, История, HDTVRip]

Ответить на тему
Статистика раздачи [Обновить пиров]
Размер:  3.52 GB   |    Зарегистрирован:  8 дней   |    Скачан:  1 раз

Полного источника не было: 8 дней

 
   
 
 
 
Автор Сообщение

torrentc.info

Создавать темы 10-Янв-2019 16:37

[Цитировать]

Самые. Самые. Самые: Проект Владимира Познера и Ивана Урганта
Дата/Год выхода: 2018
Страна: Россия
Жанр: Путешествия, История
Продолжительность: ~00:47:00
Перевод: Не требуется
Режиссер: Валерий Спирин
Телеканал: Первый HD
Описание: Владимир Познер и Иван Ургант продолжают серию документальных фильмов очередным путешествием — на этот раз в страны Скандинавии и Финляндию
Сэмпл: http://multi-up.com/1219719
качество: HDTVRip
формат: AVI
Видео: 720x400 (1.80:1), 25 fps, XviD build 73 ~1900 kbps avg, 0.26 bit/pixel
Аудио: 48 kHz, AC3 Dolby Digital, 2/0 (L,R) ch, ~192 kbps

MediaInfo

ОбщееПолное имя : E:\kodirovany\Самые. Самые. Самые.2018.HDTVRip.Doc66\01. Самые богатые. Нефть и рыба.aviФормат файла : AVIФормат файла/Информация : Audio Video InterleaveРазмер файла : 713 МбайтПродолжительность : 47 м.Общий поток : 2102 Кбит/секПрограмма кодирования : VirtualDubMod 1.5.10.3 | www.virtualdub-fr.org || (build 2550/release)Библиотека кодирования : VirtualDubMod build 2550/release
ВидеоИдентификатор : 0Формат файла : MPEG-4 VisualПрофиль формата : Advanced Simple@L5Параметр BVOP формата : 1Параметр QPel формата : НетПараметр GMC формата : Без точки переходаПараметр матрицы формата : ВыборочнаяИдентификатор кодека : XVIDИдентификатор кодека/Подсказка : XviDПродолжительность : 47 м.Битрейт : 1901 Кбит/секШирина : 720 пикселейВысота : 400 пикселейСоотношение сторон : 16:9Частота кадров : 25,000 кадров/секЦветовое пространство : YUVСубдискретизация насыщенности : 4:2:0Битовая глубина : 8 битТип развёртки : ПрогрессивнаяМетод сжатия : С потерямиБит/(Пиксели*Кадры) : 0.264Размер потока : 644 Мбайт (90%)Библиотека кодирования : XviD 73
АудиоИдентификатор : 1Формат файла : AC-3Формат файла/Информация : Audio Coding 3Расширение режима : CM (complete main)Параметр Endianness формата : BigИдентификатор кодека : 2000Продолжительность : 47 м.Вид битрейта : ПостоянныйБитрейт : 192 Кбит/секКаналы : 2 каналаРасположение каналов : Front: L RЧастота : 48,0 КГцМетод сжатия : С потерямиРазмер потока : 65,1 Мбайт (9%)Выравнивание : Разделение по промежуткамПродолжительность промежутка : 40 мс. (1,00 видеокадр)Время предзагрузки промежутка : 500 мс.

Скриншоты








[torrentc.info]_t_5671067.torrent
Торрент: Зарегистрирован ·  [ 2019-01-10 16:37 ] ·  16560d1384ce57baeeba78abc0eb2854b02d25f1

19 KB

Статус: проверено
Скачан: 1 раз
Размер: 3.52 GB
Оценка: 
(Голосов: 0)
Сказали спасибо: 0  Спасибо
Похожие темы
[Профиль]    [ЛС]
Показать сообщения:    
Ответить на тему

Текущее время: Сегодня 05:05

Часовой пояс: GMT + 7



Вы не можете начинать темы
Вы не можете отвечать на сообщения
Вы не можете редактировать свои сообщения
Вы не можете удалять свои сообщения
Вы не можете голосовать в опросах
Вы не можете прикреплять файлы к сообщениям
Вы можете скачивать файлы