[TR24][DV] Ryuichi Sakamoto - Playing the Piano /05 - 2008 (Modern Classical)

Ответить на тему
Статистика раздачи [Обновить пиров]
Размер:  1.02 GB   |    Зарегистрирован:  2 месяца 13 дней   |    Скачан:  0 раз

Полного источника не было: Никогда

 
   
 
 
 
Автор Сообщение

Mak

Создавать темы 08-Янв-2019 09:36

[Цитировать]

Ryuichi Sakamoto - Playing the Piano /05
Формат файла записи/Источник записи: [TR24][DV]
Год издания/переиздания диска: 2008
Жанр: Modern Classical
Издатель (лейбл): Commmons (RZBM-45837)
Продолжительность: 01:57:14
Наличие сканов в содержимом раздачи: Нет
Треклист:
00. Title Credits (4:19)
01. Asience (3:06)
02. Amore (4:56)
03. Seven Samurai (Ending Theme) (5:56)
04. Undercooled (Acoustica) (7:40)
05. A Flower Is Not a Flower (3:32)
06. Fountain (2:16)
07. Chanson (2:34)
08. Bibo no Aozora (6:18)
09. Energy Flow (7:04)
10. Shining Boy & Little Randy (4:37)
11. Merry Christmas Mr. Lawrence (4:00)
12. The Last Emperor (9:03)
13. Tibetan Dance (5:06)
14. Riot in Lagos (4:48)
15. +33 (6:32)
[encore 1]
16. Happyend (5:17)
17. Thousand Knives (8:14)
18. Tamago 2004 (2:47)
19. Aqua (6:17)
[encore 2]
20. Parolibre (4:34)
[encore 3]
21. The Sheltering Sky (8:18)
Формат файла: FLAC (*.flac)
Тип рипа: tracks
Разрядность: 24/48
Формат файла: WAV (flac.ape.wv)
Количество каналов: 2.0

Лог проверки качества

foobar2000 1.4.1 / Dynamic Range Meter 1.1.1log date: 2019-01-08 04:00:36
--------------------------------------------------------------------------------Analyzed: Ryuichi Sakamoto / Playing the Piano /05--------------------------------------------------------------------------------
DR Peak RMS Duration Track--------------------------------------------------------------------------------DR13 -7.64 dB -23.84 dB 4:19 00-Title CreditsDR15 -7.56 dB -27.33 dB 3:06 01-AsienceDR15 -5.92 dB -25.70 dB 4:56 02-AmoreDR15 -7.49 dB -27.03 dB 5:56 03-Seven Samurai (Ending Theme)DR15 -5.60 dB -26.98 dB 7:40 04-Undercooled (Acoustica)DR16 -5.01 dB -29.50 dB 3:32 05-A Flower Is Not a FlowerDR15 -9.94 dB -29.86 dB 2:16 06-FountainDR14 -4.62 dB -25.44 dB 2:34 07-ChansonDR15 -3.70 dB -29.11 dB 6:18 08-Bibo no AozoraDR15 -3.60 dB -25.34 dB 7:04 09-Energy FlowDR14 -5.91 dB -26.26 dB 4:37 10-Shining Boy & Little RandyDR14 -2.34 dB -21.08 dB 4:00 11-Merry Christmas Mr. LawrenceDR16 -0.35 dB -24.60 dB 9:03 12-The Last EmperorDR18 -1.58 dB -24.59 dB 5:06 13-Tibetan DanceDR14 -4.19 dB -21.78 dB 4:48 14-Riot in LagosDR14 -2.34 dB -20.82 dB 6:32 15-33DR14 -3.99 dB -21.26 dB 5:17 16-HappyendDR15 -2.20 dB -22.46 dB 8:14 17-Thousand KnivesDR17 -3.16 dB -28.31 dB 2:47 18-Tamago 2004DR17 -4.07 dB -27.09 dB 6:17 19-AquaDR15 -5.66 dB -25.87 dB 4:34 20-ParolibreDR17 -1.47 dB -26.07 dB 8:18 21-The Sheltering Sky--------------------------------------------------------------------------------
Number of tracks: 22Official DR value: DR15
Samplerate: 48000 HzChannels: 2Bits per sample: 24Bitrate: 1212 kbpsCodec: FLAC================================================================================
Источник (релизер): Profesh

От релизера

Ripped with Handbrake 0.10.5 to MKV, then demuxed and exported to 24-bit FLAC using Audacity 2.0.6.


[torrentc.info]_t_5671209.torrent
Торрент: Зарегистрирован ·  [ 2019-01-08 09:36 ] ·  5a63b0a5e71f0ed28e241df932e53a4590c80b43

12 KB

Статус: проверено
Скачан: 0 раз
Размер: 1.02 GB
Оценка: 
(Голосов: 0)
Сказали спасибо: 0  Спасибо
Похожие темы
[Профиль]    [ЛС]
Показать сообщения:    
Ответить на тему

Текущее время: Сегодня 01:30

Часовой пояс: GMT + 7



Вы не можете начинать темы
Вы не можете отвечать на сообщения
Вы не можете редактировать свои сообщения
Вы не можете удалять свои сообщения
Вы не можете голосовать в опросах
Вы не можете прикреплять файлы к сообщениям
Вы можете скачивать файлы