(Synthpop, Pop, Electronic) [CDR] YELLO - Non-Album Songs - 2011, FLAC (image+.cue), lossless

Ответить на тему
Статистика раздачи [Обновить пиров]
Размер:  923 MB   |    Зарегистрирован:  11 дней   |    Скачан:  0 раз

Полного источника не было: Никогда

 
   
 
 
 
Автор Сообщение

torrentc.info

Создавать темы 08-Янв-2019 02:20

[Цитировать]

YELLO / Non-Album Songs
Жанр: Synthpop, Pop, Electronic
Носитель: CDR
Страна-производитель диска (релиза): US
Год издания: 2011
Издатель (лейбл): Not On Label
Номер по каталогу: Unofficial Release
Страна исполнителя (группы): Switzerland
Аудиокодек: FLAC (*.flac)
Тип рипа: image+.cue
Битрейт аудио: lossless
Продолжительность: 2:37:41
Источник (релизер): Свой 2*CDR
Наличие сканов в содержимом раздачи: да
Треклист:
CD 1
01 Cry For Fame 2:15
02 The Hook 2:06
03 Jim For Tango 2:41
04 Madman 3:43
05 No Chance 2:16
06 Gluehead 2:54
07 I.T. Splash 2:47
08 Jetzt Und Alles 1:39
09 There Is No Reason 4:03
10 Smiraks Train 4:40
11 Thrill Wave 2:06
12 XS (First Ever Version) 5:23
13 Two Worlds 4:12
14 Live At The Roxy 12:26
15 She's Got A Gun 3:58
16 Haunted House 4:30
17 Desire For Desire 4:16
18 Rubber West 3:30
19 Blue Nabou 3:21
20 Goldrush (Version 2) 6:39
CD 2
01 Tool In Rose 5:42
02 Life For Sale 3:56
03 Life Is A Snowball 4:14
04 Happy New Year 3:35
05 On The Run 3:41
06 Wall Street Bongo 3:08
07 Unbelieveable 3:35
08 Moon Dog 3:32
09 Ice Machine 3:48
10 What Made Me Turn On The Lights? 4:58
11 Andy 7:00
12 Jingle Bells 2:59
13 Technologically 5:28
14 Topas 3:49
15 A New Culture Is Born 3:12
16 I Want You Back 8:29
17 Distant Light 3:43
18 Gimme 3:41

logs and sheetsLog EAC CD 1

Exact Audio Copy V1.3 from 2. September 2016
Отчёт EAC об извлечении, выполненном 20. октября 2018, 23:34
Yello / Non-Album Songs
Дисковод: ASUS DRW-24F1MT Adapter: 1 ID: 0
Режим чтения : ДостоверностьИспользование точного потока : ДаОтключение кэша аудио : ДаИспользование указателей C2 : Нет
Коррекция смещения при чтении : 6Способность читать области Lead-in и Lead-out : НетЗаполнение пропущенных сэмплов тишиной : ДаУдаление блоков с тишиной в начале и конце : НетПри вычислениях CRC использовались нулевые сэмплы : ДаИнтерфейс : Встроенный Win32-интерфейс для Win NT/2000
Выходной формат : Пользовательский кодировщикВыбранный битрейт : 768 kBit/sКачество : ВысокийДобавление ID3-тега : НетУтилита сжатия : C:\Program Files (x86)\Exact Audio Copy\FLAC\FLAC.EXEДополнительные параметры : -V -8 -T "Date=%year%" -T "Genre=%genre%" %source%
TOC извлечённого CD
Трек | Старт | Длительность | Начальный сектор | Конечный сектор --------------------------------------------------------------------- 1 | 0:00.00 | 2:14.48 | 0 | 10097 2 | 2:14.48 | 2:05.48 | 10098 | 19520 3 | 4:20.21 | 2:40.48 | 19521 | 31568 4 | 7:00.69 | 3:42.48 | 31569 | 48266 5 | 10:43.42 | 2:15.48 | 48267 | 58439 6 | 12:59.15 | 2:53.48 | 58440 | 71462 7 | 15:52.63 | 2:46.48 | 71463 | 83960 8 | 18:39.36 | 1:38.48 | 83961 | 91358 9 | 20:18.09 | 4:02.48 | 91359 | 109556 10 | 24:20.57 | 4:39.48 | 109557 | 130529 11 | 29:00.30 | 2:05.48 | 130530 | 139952 12 | 31:06.03 | 5:22.48 | 139953 | 164150 13 | 36:28.51 | 4:11.48 | 164151 | 183023 14 | 40:40.24 | 12:25.48 | 183024 | 238946 15 | 53:05.72 | 3:57.48 | 238947 | 256769 16 | 57:03.45 | 4:29.48 | 256770 | 276992 17 | 61:33.18 | 4:15.48 | 276993 | 296165 18 | 65:48.66 | 3:29.48 | 296166 | 311888 19 | 69:18.39 | 3:20.48 | 311889 | 326936 20 | 72:39.12 | 6:38.48 | 326937 | 356834
Характеристики диапазона извлечения и сообщения об ошибках
Выбранный диапазон
Имя файла X:\_upload\Yello - Non-Album Songs\Yello - Non-Album Songs.wav
Пиковый уровень 100.0 % Скорость извлечения 5.1 X Качество диапазона 100.0 % CRC теста CCB32197 CRC копии CCB32197 Копирование... OK
Ошибок не произошло
AccurateRip: сводка
Трек 1 отсутствует в базе данныхТрек 2 отсутствует в базе данныхТрек 3 отсутствует в базе данныхТрек 4 отсутствует в базе данныхТрек 5 отсутствует в базе данныхТрек 6 отсутствует в базе данныхТрек 7 отсутствует в базе данныхТрек 8 отсутствует в базе данныхТрек 9 отсутствует в базе данныхТрек 10 отсутствует в базе данныхТрек 11 отсутствует в базе данныхТрек 12 отсутствует в базе данныхТрек 13 отсутствует в базе данныхТрек 14 отсутствует в базе данныхТрек 15 отсутствует в базе данныхТрек 16 отсутствует в базе данныхТрек 17 отсутствует в базе данныхТрек 18 отсутствует в базе данныхТрек 19 отсутствует в базе данныхТрек 20 отсутствует в базе данных
Ни одного трека нет в базе AccurateRip
Конец отчёта
---- CUETools DB Plugin V2.1.6
[CTDB TOCID: GmLPPqnnT5zC3zrsFIwXg7oETy4-] disk not present in databaseSubmit result: GmLPPqnnT5zC3zrsFIwXg7oETy4- has been uploaded
==== Контрольная сумма отчёта F3AB81A456AD08F3B94390EE66BDE9FC0302B138C4E3D1AB8CFF05F15C82CB5E ====

cue CD 1

REM GENRE ElectronicREM DATE 2011REM DISCID 06129514REM COMMENT "ExactAudioCopy v1.3"PERFORMER "Yello"TITLE "Non-Album Songs "REM COMPOSER ""FILE "Yello - Non-Album Songs-CD1.flac" WAVE TRACK 01 AUDIO TITLE "01. DIETER MEIER - Cry For Fame" PERFORMER "Yello" REM COMPOSER "" INDEX 01 00:00:00 TRACK 02 AUDIO TITLE "02. DIETER MEIER - The Hook" PERFORMER "Yello" REM COMPOSER "" INDEX 01 02:14:48 TRACK 03 AUDIO TITLE "03. DIETER MEIER - Jim For Tango" PERFORMER "Yello" REM COMPOSER "" INDEX 01 04:20:21 TRACK 04 AUDIO TITLE "04. DIETER MEIER - Madman" PERFORMER "Yello" REM COMPOSER "" INDEX 01 07:00:69 TRACK 05 AUDIO TITLE "05. FRESH COLOR - No Chance (with Dieter Meier)" PERFORMER "Yello" REM COMPOSER "" INDEX 01 10:43:42 TRACK 06 AUDIO TITLE "06. Gluehead" PERFORMER "Yello" REM COMPOSER "" INDEX 01 12:59:15 TRACK 07 AUDIO TITLE "07. IT Splash" PERFORMER "Yello" REM COMPOSER "" INDEX 01 15:52:63 TRACK 08 AUDIO TITLE "08. Jezt Und Alles" PERFORMER "Yello" REM COMPOSER "" INDEX 01 18:39:36 TRACK 09 AUDIO TITLE "09. There Is No Reason" PERFORMER "Yello" REM COMPOSER "" INDEX 01 20:18:09 TRACK 10 AUDIO TITLE "10. Smirak's Train" PERFORMER "Yello" REM COMPOSER "" INDEX 01 24:20:57 TRACK 11 AUDIO TITLE "11. Thrill Wave" PERFORMER "Yello" REM COMPOSER "" INDEX 01 29:00:30 TRACK 12 AUDIO TITLE "XS (1st Version)" PERFORMER "YELLo & Carlos Peron" REM COMPOSER "" INDEX 01 31:06:03 TRACK 13 AUDIO TITLE "13. Two Worlds" PERFORMER "Yello" REM COMPOSER "" INDEX 01 36:28:51 TRACK 14 AUDIO TITLE "14. Live At The Roxy" PERFORMER "Yello" REM COMPOSER "" INDEX 01 40:40:24 TRACK 15 AUDIO TITLE "15. She's Got A Gun - Live at the Roxy 1985" PERFORMER "Yello" REM COMPOSER "" INDEX 01 53:05:72 TRACK 16 AUDIO TITLE "16. Haunted House" PERFORMER "Yello" REM COMPOSER "" INDEX 01 57:03:45 TRACK 17 AUDIO TITLE "17. Desire For Desire" PERFORMER "Yello" REM COMPOSER "" INDEX 01 61:33:18 TRACK 18 AUDIO TITLE "18. Rubber West" PERFORMER "Yello" REM COMPOSER "" INDEX 01 65:48:66 TRACK 19 AUDIO TITLE "19. Blue Nabou" PERFORMER "Yello" REM COMPOSER "" INDEX 01 69:18:39 TRACK 20 AUDIO TITLE "20. Goldrush Part 2" PERFORMER "Yello" REM COMPOSER "" INDEX 01 72:39:12

Log EAC CD 2

Exact Audio Copy V1.3 from 2. September 2016
Отчёт EAC об извлечении, выполненном 30. декабря 2018, 23:40
Yello / Non-Album Songs-CD2
Дисковод: TEAC CD-W552E Adapter: 1 ID: 0
Режим чтения : ДостоверностьИспользование точного потока : ДаОтключение кэша аудио : ДаИспользование указателей C2 : Нет
Коррекция смещения при чтении : 6Способность читать области Lead-in и Lead-out : НетЗаполнение пропущенных сэмплов тишиной : ДаУдаление блоков с тишиной в начале и конце : НетПри вычислениях CRC использовались нулевые сэмплы : ДаИнтерфейс : Встроенный Win32-интерфейс для Win NT/2000
Выходной формат : Пользовательский кодировщикВыбранный битрейт : 768 kBit/sКачество : ВысокийДобавление ID3-тега : НетУтилита сжатия : C:\Program Files (x86)\Exact Audio Copy\FLAC\FLAC.EXEДополнительные параметры : -V -8 -T "Date=%year%" -T "Genre=%genre%" %source%
TOC извлечённого CD
Трек | Старт | Длительность | Начальный сектор | Конечный сектор --------------------------------------------------------------------- 1 | 0:00.00 | 5:41.48 | 0 | 25622 2 | 5:41.48 | 3:55.48 | 25623 | 43295 3 | 9:37.21 | 4:13.48 | 43296 | 62318 4 | 13:50.69 | 3:34.48 | 62319 | 78416 5 | 17:25.42 | 3:40.48 | 78417 | 94964 6 | 21:06.15 | 3:07.48 | 94965 | 109037 7 | 24:13.63 | 3:34.48 | 109038 | 125135 8 | 27:48.36 | 3:31.48 | 125136 | 141008 9 | 31:20.09 | 3:47.48 | 141009 | 158081 10 | 35:07.57 | 4:57.48 | 158082 | 180404 11 | 40:05.30 | 6:59.48 | 180405 | 211877 12 | 47:05.03 | 2:58.48 | 211878 | 225275 13 | 50:03.51 | 5:27.48 | 225276 | 249848 14 | 55:31.24 | 3:48.48 | 249849 | 266996 15 | 59:19.72 | 3:11.48 | 266997 | 281369 16 | 62:31.45 | 8:28.48 | 281370 | 319517 17 | 71:00.18 | 3:42.48 | 319518 | 336215 18 | 74:42.66 | 3:40.48 | 336216 | 352763
Характеристики диапазона извлечения и сообщения об ошибках
Выбранный диапазон
Имя файла X:\_upload\cd2\Yello - Non-Album Songs-CD2.wav
Пиковый уровень 100.0 % Скорость извлечения 2.5 X Качество диапазона 100.0 % CRC теста D8356B0E CRC копии D8356B0E Копирование... OK
Ошибок не произошло
AccurateRip: сводка
Трек 1 точность не определена (достоверность 1) [B57DF64C], AccurateRip вернул [88272196] (AR v2)Трек 2 точность не определена (достоверность 1) [2E1848ED], AccurateRip вернул [468AE272] (AR v2)Трек 3 точность не определена (достоверность 1) [C1953B71], AccurateRip вернул [EAE8495C] (AR v2)Трек 4 точность не определена (достоверность 1) [2419E6BA], AccurateRip вернул [307D030E] (AR v2)Трек 5 точность не определена (достоверность 1) [6086E5BB], AccurateRip вернул [3CC39A40] (AR v2)Трек 6 точность не определена (достоверность 1) [64CD8EC4], AccurateRip вернул [EC62B522] (AR v2)Трек 7 точность не определена (достоверность 1) [87670460], AccurateRip вернул [84D475D1] (AR v2)Трек 8 точность не определена (достоверность 1) [F1E737D3], AccurateRip вернул [C1E5C249] (AR v2)Трек 9 точность не определена (достоверность 1) [DF92F2EE], AccurateRip вернул [6ACFDC81] (AR v2)Трек 10 точность не определена (достоверность 1) [E7AB4357], AccurateRip вернул [09271818] (AR v2)Трек 11 точность не определена (достоверность 1) [AEFB9620], AccurateRip вернул [EEA27021] (AR v2)Трек 12 точность не определена (достоверность 1) [98AEFEDC], AccurateRip вернул [7F8B82EB] (AR v2)Трек 13 точность не определена (достоверность 1) [431A87DA], AccurateRip вернул [0699A724] (AR v2)Трек 14 точность не определена (достоверность 1) [84836869], AccurateRip вернул [8976BD11] (AR v2)Трек 15 точность не определена (достоверность 1) [65CB7829], AccurateRip вернул [1668E753] (AR v2)Трек 16 точность не определена (достоверность 1) [3CC241D6], AccurateRip вернул [B99DA46A] (AR v2)Трек 17 точность не определена (достоверность 1) [FE8680AA], AccurateRip вернул [4E125BAA] (AR v2)Трек 18 точность не определена (достоверность 1) [451E1032], AccurateRip вернул [D3283090] (AR v2)
Ни один трек не прошёл проверки на точностьВ вашей базе может быть иной вариант штамповки диска
Конец отчёта
---- CUETools DB Plugin V2.1.6
[CTDB TOCID: Bjoayeq6aJSjl15kX4dIUrXNIYU-] foundSubmit result: already submittedTrack | CTDB Status 1 | (2/2) Accurately ripped 2 | (2/2) Accurately ripped 3 | (2/2) Accurately ripped 4 | (2/2) Accurately ripped 5 | (2/2) Accurately ripped 6 | (2/2) Accurately ripped 7 | (2/2) Accurately ripped 8 | (2/2) Accurately ripped 9 | (2/2) Accurately ripped 10 | (2/2) Accurately ripped 11 | (2/2) Accurately ripped 12 | (2/2) Accurately ripped 13 | (2/2) Accurately ripped 14 | (2/2) Accurately ripped 15 | (2/2) Accurately ripped 16 | (2/2) Accurately ripped 17 | (2/2) Accurately ripped 18 | (2/2) Accurately ripped
==== Контрольная сумма отчёта 09E4018365B5B595E9256D6877529AF16B3C93A864428BA3FD9FEC49E06A7DD7 ====

cue CD 2

REM GENRE ElectronicREM DATE 2011REM DISCID FE125F12REM COMMENT "ExactAudioCopy v1.3"PERFORMER "Yello"TITLE "Non-Album Songs-CD2"REM COMPOSER ""FILE "Yello - Non-Album Songs-CD2.flac" WAVE TRACK 01 AUDIO TITLE "01. Tool In Rose" PERFORMER "Yello" REM COMPOSER "" INDEX 01 00:00:00 TRACK 02 AUDIO TITLE "02. Life For Sale" PERFORMER "Yello" REM COMPOSER "" INDEX 01 05:41:48 TRACK 03 AUDIO TITLE "03. Life Is A Snowball" PERFORMER "Yello" REM COMPOSER "" INDEX 01 09:37:21 TRACK 04 AUDIO TITLE "04. Happy New Year" PERFORMER "Yello" REM COMPOSER "" INDEX 01 13:50:69 TRACK 05 AUDIO TITLE "05. On The Run" PERFORMER "Yello" REM COMPOSER "" INDEX 01 17:25:42 TRACK 06 AUDIO TITLE "06. Wall Street Bongo" PERFORMER "Yello" REM COMPOSER "" INDEX 01 21:06:15 TRACK 07 AUDIO TITLE "07. Unbelievable" PERFORMER "Yello" REM COMPOSER "" INDEX 01 24:13:63 TRACK 08 AUDIO TITLE "08. Moon Dog" PERFORMER "Yello" REM COMPOSER "" INDEX 01 27:48:36 TRACK 09 AUDIO TITLE "09. Ice Machine" PERFORMER "Yello" REM COMPOSER "" INDEX 01 31:20:09 TRACK 10 AUDIO TITLE "10. What Made Me Turn On The Lights (with Billy Mackenzie)" PERFORMER "Yello" REM COMPOSER "" INDEX 01 35:07:57 TRACK 11 AUDIO TITLE "11. Andy aka Busy Going Nowhere" PERFORMER "Yello" REM COMPOSER "" INDEX 01 40:05:30 TRACK 12 AUDIO TITLE "12. Jingle Bells" PERFORMER "Yello" REM COMPOSER "" INDEX 01 47:05:03 TRACK 13 AUDIO TITLE "13. Technomagically (with Lee 'Scratch' Perry)" PERFORMER "Yello" REM COMPOSER "" INDEX 01 50:03:51 TRACK 14 AUDIO TITLE "14. Topaz" PERFORMER "Yello" REM COMPOSER "" INDEX 01 55:31:24 TRACK 15 AUDIO TITLE "15. A New Culture Is Born" PERFORMER "Yello" REM COMPOSER "" INDEX 01 59:19:72 TRACK 16 AUDIO TITLE "16. I Want You Back (with X-Press)" PERFORMER "Yello" REM COMPOSER "" INDEX 01 62:31:45 TRACK 17 AUDIO TITLE "17. Distant Light" PERFORMER "Yello" REM COMPOSER "" INDEX 01 71:00:18 TRACK 18 AUDIO TITLE "18. Gimme (Dieter Meier with Headman)" PERFORMER "Yello" REM COMPOSER "" INDEX 01 74:42:66

Логи проверки качества

Dynamic Range Meter CD 1

foobar2000 1.3.16 / Dynamic Range Meter 1.1.1
log date: 2018-11-17 23:06:10
--------------------------------------------------------------------------------
Analyzed: Yello / Non-Album Songs
--------------------------------------------------------------------------------
DR Peak RMS Duration Track
--------------------------------------------------------------------------------
DR12 -1.82 dB -16.37 dB 2:15 01-01. DIETER MEIER - Cry For Fame
DR12 -2.03 dB -14.93 dB 2:06 02-02. DIETER MEIER - The Hook
DR11 -1.84 dB -14.50 dB 2:41 03-03. DIETER MEIER - Jim For Tango
DR13 -1.12 dB -17.42 dB 3:43 04-04. DIETER MEIER - Madman
DR10 0.00 dB -11.12 dB 2:16 05-05. FRESH COLOR - No Chance (with Dieter Meier)
DR7 -0.22 dB -7.81 dB 2:54 06-06. Gluehead
DR6 0.00 dB -7.39 dB 2:47 07-07. IT Splash
DR10 -0.28 dB -13.07 dB 1:39 08-08. Jezt Und Alles
DR11 -0.28 dB -12.53 dB 4:03 09-09. There Is No Reason
DR8 -0.22 dB -10.75 dB 4:40 10-10. Smirak's Train
DR8 -0.29 dB -11.56 dB 2:06 11-11. Thrill Wave
DR10 -0.86 dB -13.77 dB 4:12 13-13. Two Worlds
DR14 -0.65 dB -17.06 dB 12:26 14-14. Live At The Roxy
DR7 -0.24 dB -9.80 dB 3:58 15-15. She's Got A Gun - Live at the Roxy 1985
DR12 0.00 dB -15.60 dB 4:30 16-16. Haunted House
DR7 -0.19 dB -10.93 dB 4:16 17-17. Desire For Desire
DR9 -0.28 dB -11.76 dB 3:30 18-18. Rubber West
DR8 -0.18 dB -9.55 dB 3:21 19-19. Blue Nabou
DR16 -0.75 dB -19.01 dB 6:39 20-20. Goldrush Part 2
--------------------------------------------------------------------------------
Number of tracks: 19
Official DR value: DR10
Samplerate: 44100 Hz
Channels: 2
Bits per sample: 16
Bitrate: 803 kbps
Codec: FLAC
================================================================================

Dynamic Range Meter CD 2

foobar2000 1.3.16 / Dynamic Range Meter 1.1.1
log date: 2018-11-17 23:07:14
--------------------------------------------------------------------------------
Analyzed: Yello / Non-Album Songs
--------------------------------------------------------------------------------
DR Peak RMS Duration Track
--------------------------------------------------------------------------------
DR7 -0.08 dB -10.22 dB 5:42 01-01. Tool In Rose
DR13 -0.14 dB -15.39 dB 3:56 02-02. Life For Sale
DR7 -0.22 dB -9.62 dB 4:14 03-03. Life Is A Snowball
DR10 -0.28 dB -12.40 dB 3:35 04-04. Happy New Year
DR13 -0.14 dB -15.78 dB 3:41 05-05. On The Run
DR10 -0.25 dB -11.45 dB 3:08 06-06. Wall Street Bongo
DR13 0.00 dB -15.35 dB 3:35 07-07. Unbelievable
DR12 -0.76 dB -16.04 dB 3:32 08-08. Moon Dog
DR14 -0.69 dB -17.77 dB 3:48 09-09. Ice Machine
DR10 -0.22 dB -13.82 dB 4:58 10-10. What Made Me Turn On The Lights (with Billy Mackenzie)
DR10 -0.14 dB -12.32 dB 7:00 11-11. Andy aka Busy Going Nowhere
DR12 -0.14 dB -14.82 dB 2:59 12-12. Jingle Bells
DR13 -0.14 dB -13.94 dB 5:28 13-13. Technomagically (with Lee 'Scratch' Perry)
DR12 -0.55 dB -15.44 dB 3:49 14-14. Topaz
DR8 -2.01 dB -12.52 dB 3:12 15-15. A New Culture Is Born
DR11 0.00 dB -12.66 dB 8:29 16-16. I Want You Back (with X-Press)
DR11 0.00 dB -12.65 dB 3:43 17-17. Distant Light
DR9 0.00 dB -10.07 dB 3:41 18-18. Gimme (Dieter Meier with Headman)
--------------------------------------------------------------------------------
Number of tracks: 18
Official DR value: DR11
Samplerate: 44100 Hz
Channels: 2
Bits per sample: 16
Bitrate: 812 kbps
Codec: FLAC
================================================================================

Скриншот спектра частот


Дополнительная информацияCD 1

Track 01 1978 from the Dieter Meier solo 7" "Cry For Fame"
Track 02 1978 the b-side of "Cry For Fame"
Track 03 1978 from the Dieter Meier solo 7" "Jim For Tango"
Track 04 1978 the b-side of "Jim For Tango"
Track 05 1978 Fresh Color featuring Dieter Meier 7" single
Track 06 to 1-11 1981 from the "Jetzt Und Alles" soundtrack
Track 12 1982 Carlos Peron featuring Dieter Meier
Track 13 1983 from the UK cassette only of "You Gotta Say Yes..."
Track 14 1983 from the "Live At The Roxy" German CD single
Track 15 1983 from the "Live At The Roxy" German 12"
Track 16 1983 from the "Let Me Cry" German 12"
Track 17 1983 from the "You Gotta Say Yes..." German 12"
Track 18 1983 from the "I Love You" UK 7"
Track 19 1985 from the "Vicious Games" US 12"
Track 20 1986 from the UK Limited Edition double 12"

CD 2

Track 01 1987 from the UK "The Rhythm Divine" 12"
Track 02, 03 1987 from the UK promo only CD "Snowball"
Track 04 1988 Carlos Peron w. Dieter Meier from "Impersonator II"
Track 05 1988 from the soundtrack to "Nuns On The Run"
Track 06 1989 from the UK 12" "Tied Up"
Track 07 1990 from the soundtrack "Adventures of Ford Fairlane"
Track 08 1992 from the UK 12" "How How"
Track 09 1992 the Grid featuring Dieter Meier
Track 10 1993 Billy McKenzie w. Dieter Meier from "Outernational"
Track 11 1993 YOU KNOW WHO with Dieter Meier Austrian CD5
Track 12 1994 from the "Jingle Bells" soundtrack
Track 13 1997 Lee "Scratch" Perry & Dieter Meier from "Technomajlcal"
Track 14 1999 from the "Eccentrix Remixes" CD
Track 15 2000 Blank & Jones featuring Dieter Meier
Track 16 2001 X-PRESS featuring Dieter Meier from "Muzikum"
Track 17 2007 from the "Progress & Perfection" CD from AUDI
Track 18 2009 with Headman, Single only

Об альбоме (сборнике)

Фанатский сборник синглов, сольных композиций и творчества Yello совместно с другими исполнителями.
Судя по спектрам качество Источник: Torrentcов очень разное, сборник был приобретен на аукционе eBay в США. Диски не фабричного изготовления, CD-R с изображением похожим на приклеенную бумагу к дискам.
Фанатам YELLO посвящается...
информация о релизе на discogs
31.12.2018 Перезалил торрент!!! CD2 теперь скопирован без ошибок в логе.


[torrentc.info]_t_5646319.torrent
Торрент: Зарегистрирован ·  [ 2019-01-08 02:20 ] ·  e1729ad8319938387ced8b8439f4d0899636eb39

19 KB

Статус: проверено
Скачан: 0 раз
Размер: 923 MB
Оценка: 
(Голосов: 0)
Сказали спасибо: 0  Спасибо
Похожие темы
[Профиль]    [ЛС]
Показать сообщения:    
Ответить на тему

Текущее время: Сегодня 05:08

Часовой пояс: GMT + 7



Вы не можете начинать темы
Вы не можете отвечать на сообщения
Вы не можете редактировать свои сообщения
Вы не можете удалять свои сообщения
Вы не можете голосовать в опросах
Вы не можете прикреплять файлы к сообщениям
Вы можете скачивать файлы