(Drum & Bass, NeuroFunk) [CD] Ed Rush & Optical - No Cure - 2015, FLAC (tracks+.cue), lossless

Ответить на тему
Статистика раздачи [Обновить пиров]
Размер:  464 MB   |    Зарегистрирован:  11 дней   |    Скачан:  0 раз

Полного источника не было: Никогда

 
   
 
 
 
Автор Сообщение

torrentc.info

Создавать темы 07-Янв-2019 20:07

[Цитировать]

Ed Rush & Optical / No Cure
Жанр: Drum & Bass, NeuroFunk
Носитель: CD
Год издания: 2015
Издатель (лейбл): Virus Recordings
Номер по каталогу: VRS013CD
Аудиокодек: FLAC (*.flac)
Тип рипа: tracks+.cue
Битрейт аудио: lossless
Продолжительность: 59:25
Источник (релизер): red
Наличие сканов в содержимом раздачи: да
Треклист:
01. Ed Rush & Optical - No Cure feat. Ryme Tyme (5:14)
02. Ed Rush & Optical - Automaton (6:12)
03. Ed Rush & Optical - Eternity (5:36)
04. Ed Rush & Optical - Falling Down Stairs (5:14)
05. Ed Rush & Optical - Half-Truth (5:11)
06. Ed Rush & Optical - Insurgent (5:34)
07. Ed Rush & Optical - The Host (6:39)
08. Ed Rush & Optical - Angry Birds (5:12)
09. Ed Rush & Optical - Long Stay feat. Ryme Tyme (5:11)
10. Ed Rush & Optical - The Nemesis (6:01)
11. Optical - Osmosis (3:22)

Лог создания рипа

Exact Audio Copy V1.3 from 2. September 2016
EAC extraction logfile from 19. August 2017, 0:17
Ed Rush & Optical / No Cure
Used drive : HL-DT-STDVDRAM GP60NS50 Adapter: 1 ID: 0
Read mode : SecureUtilize accurate stream : YesDefeat audio cache : YesMake use of C2 pointers : No
Read offset correction : 6Overread into Lead-In and Lead-Out : NoFill up missing offset samples with silence : YesDelete leading and trailing silent blocks : NoNull samples used in CRC calculations : YesUsed interface : Native Win32 interface for Win NT & 2000Gap handling : Appended to previous track
Used output format : User Defined EncoderSelected bitrate : 1024 kBit/sQuality : HighAdd ID3 tag : NoCommand line compressor : C:\Program Files (x86)\Exact Audio Copy\Flac\flac.exeAdditional command line options : -8 -e -p -V -T "ARTIST=%artist%" -T "TITLE=%title%" -T "ALBUM=%albumtitle%" -T "DATE=%year%" -T "TRACKNUMBER=%tracknr%" -T "GENRE=%genre%" -T "PERFORMER=%albuminterpret%" -T "COMPOSER=%composer%" %haslyrics%--tag-from-file=LYRICS="%lyricsfile%"%haslyrics% -T "ALBUMARTIST=%albumartist%" -T "DISCNUMBER=%cdnumber%" -T "TOTALDISCS=%totalcds%" -T "TOTALTRACKS=%numtracks%" -T "COMMENT=%comment%" %source% -o %dest%
TOC of the extracted CD
Track | Start | Length | Start sector | End sector --------------------------------------------------------- 1 | 0:00.00 | 5:13.39 | 0 | 23513 2 | 5:13.39 | 6:11.59 | 23514 | 51397 3 | 11:25.23 | 5:35.69 | 51398 | 76591 4 | 17:01.17 | 5:13.64 | 76592 | 100130 5 | 22:15.06 | 5:10.52 | 100131 | 123432 6 | 27:25.58 | 5:34.01 | 123433 | 148483 7 | 32:59.59 | 6:39.27 | 148484 | 178435 8 | 39:39.11 | 5:11.72 | 178436 | 201832 9 | 44:51.08 | 5:11.07 | 201833 | 225164 10 | 50:02.15 | 6:00.56 | 225165 | 252220 11 | 56:02.71 | 3:22.13 | 252221 | 267383
Track 1
Filename C:\EAC\Ed Rush & Optical - No Cure\01 - No Cure feat. Ryme Tyme.wav
Pre-gap length 0:00:02.00
Peak level 100.0 % Extraction speed 1.0 X Track quality 100.0 % Test CRC 115CF8DB Copy CRC 115CF8DB Accurately ripped (confidence 3) [A5107688] (AR v2) Copy OK
Track 2
Filename C:\EAC\Ed Rush & Optical - No Cure\02 - Automaton.wav
Pre-gap length 0:00:02.00
Peak level 100.0 % Extraction speed 1.3 X Track quality 100.0 % Test CRC 75016246 Copy CRC 75016246 Accurately ripped (confidence 3) [FA909277] (AR v2) Copy OK
Track 3
Filename C:\EAC\Ed Rush & Optical - No Cure\03 - Eternity.wav
Pre-gap length 0:00:02.00
Peak level 100.0 % Extraction speed 1.5 X Track quality 100.0 % Test CRC 8EF2569C Copy CRC 8EF2569C Accurately ripped (confidence 3) [C6FC7AB3] (AR v2) Copy OK
Track 4
Filename C:\EAC\Ed Rush & Optical - No Cure\04 - Falling Down Stairs.wav
Pre-gap length 0:00:02.00
Peak level 100.0 % Extraction speed 1.7 X Track quality 100.0 % Test CRC AD09C2DC Copy CRC AD09C2DC Accurately ripped (confidence 3) [7EA29CBF] (AR v2) Copy OK
Track 5
Filename C:\EAC\Ed Rush & Optical - No Cure\05 - Half-Truth.wav
Pre-gap length 0:00:02.00
Peak level 100.0 % Extraction speed 1.8 X Track quality 100.0 % Test CRC B6B291D4 Copy CRC B6B291D4 Accurately ripped (confidence 3) [C152A4F1] (AR v2) Copy OK
Track 6
Filename C:\EAC\Ed Rush & Optical - No Cure\06 - Insurgent.wav
Pre-gap length 0:00:02.00
Peak level 100.0 % Extraction speed 1.9 X Track quality 100.0 % Test CRC A8A58114 Copy CRC A8A58114 Accurately ripped (confidence 3) [E8531B3E] (AR v2) Copy OK
Track 7
Filename C:\EAC\Ed Rush & Optical - No Cure\07 - The Host.wav
Pre-gap length 0:00:02.00
Peak level 100.0 % Extraction speed 1.9 X Track quality 99.9 % Test CRC B76E8808 Copy CRC B76E8808 Accurately ripped (confidence 3) [95C02A3A] (AR v2) Copy OK
Track 8
Filename C:\EAC\Ed Rush & Optical - No Cure\08 - Angry Birds.wav
Pre-gap length 0:00:02.00
Peak level 100.0 % Extraction speed 2.1 X Track quality 100.0 % Test CRC 3004D2A7 Copy CRC 3004D2A7 Accurately ripped (confidence 3) [9D051824] (AR v2) Copy OK
Track 9
Filename C:\EAC\Ed Rush & Optical - No Cure\09 - Long Stay feat. Ryme Tyme.wav
Pre-gap length 0:00:02.00
Peak level 100.0 % Extraction speed 2.0 X Track quality 99.9 % Test CRC 9C175B82 Copy CRC 9C175B82 Accurately ripped (confidence 2) [A886BD09] (AR v2) Copy OK
Track 10
Filename C:\EAC\Ed Rush & Optical - No Cure\10 - The Nemesis.wav
Pre-gap length 0:00:02.00
Peak level 100.0 % Extraction speed 2.4 X Track quality 100.0 % Test CRC 7149E3B6 Copy CRC 7149E3B6 Accurately ripped (confidence 3) [6F1B5FB3] (AR v2) Copy OK
Track 11
Filename C:\EAC\Ed Rush & Optical - No Cure\11 - Osmosis.wav
Pre-gap length 0:00:02.00
Peak level 97.7 % Extraction speed 1.9 X Track quality 99.9 % Test CRC 09EBEF3A Copy CRC 09EBEF3A Accurately ripped (confidence 3) [8DFE8D6E] (AR v2) Copy OK
All tracks accurately ripped
No errors occurred
End of status report
---- CUETools DB Plugin V2.1.6
[CTDB TOCID: E_6X2_s0VOAGpkvYnkJPYou.CvY-] foundSubmit result: E_6X2_s0VOAGpkvYnkJPYou.CvY- has been confirmedTrack | CTDB Status 1 | (8/8) Accurately ripped 2 | (8/8) Accurately ripped 3 | (8/8) Accurately ripped 4 | (8/8) Accurately ripped 5 | (8/8) Accurately ripped 6 | (8/8) Accurately ripped 7 | (8/8) Accurately ripped 8 | (8/8) Accurately ripped 9 | (6/8) Accurately ripped 10 | (7/8) Accurately ripped 11 | (8/8) Accurately ripped
==== Log checksum F3FE6B150FCC5EA4750DEE4E7EED9C4D3D5F7D447D8DCC2E3076AC91464280EA ====

Содержание индексной карты (.CUE)

REM GENRE "Drum & Bass"REM DATE 2015REM DISCID 920DED0BREM COMMENT "ExactAudioCopy v1.3"PERFORMER "Ed Rush & Optical"TITLE "No Cure"REM COMPOSER ""FILE "01 - No Cure feat. Ryme Tyme.wav" WAVE TRACK 01 AUDIO TITLE "No Cure feat. Ryme Tyme" PERFORMER "Ed Rush & Optical" REM COMPOSER "" ISRC GBTKW1401301 INDEX 01 00:00:00 TRACK 02 AUDIO TITLE "Automaton" PERFORMER "Ed Rush & Optical" REM COMPOSER "" ISRC GBTKW1401302 INDEX 00 05:11:39FILE "02 - Automaton.wav" WAVE INDEX 01 00:00:00 TRACK 03 AUDIO TITLE "Eternity" PERFORMER "Ed Rush & Optical" REM COMPOSER "" ISRC GBTKW1401303 INDEX 00 06:09:59FILE "03 - Eternity.wav" WAVE INDEX 01 00:00:00 TRACK 04 AUDIO TITLE "Falling Down Stairs" PERFORMER "Ed Rush & Optical" REM COMPOSER "" ISRC GBTKW1401304 INDEX 00 05:33:69FILE "04 - Falling Down Stairs.wav" WAVE INDEX 01 00:00:00 TRACK 05 AUDIO TITLE "Half-Truth" PERFORMER "Ed Rush & Optical" REM COMPOSER "" ISRC GBTKW1401305 INDEX 00 05:11:64FILE "05 - Half-Truth.wav" WAVE INDEX 01 00:00:00 TRACK 06 AUDIO TITLE "Insurgent" PERFORMER "Ed Rush & Optical" REM COMPOSER "" ISRC GBTKW1401306 INDEX 00 05:08:52FILE "06 - Insurgent.wav" WAVE INDEX 01 00:00:00 TRACK 07 AUDIO TITLE "The Host" PERFORMER "Ed Rush & Optical" REM COMPOSER "" ISRC GBTKW1401307 INDEX 00 05:32:01FILE "07 - The Host.wav" WAVE INDEX 01 00:00:00 TRACK 08 AUDIO TITLE "Angry Birds" PERFORMER "Ed Rush & Optical" REM COMPOSER "" ISRC GBTKW1401308 INDEX 00 06:37:27FILE "08 - Angry Birds.wav" WAVE INDEX 01 00:00:00 TRACK 09 AUDIO TITLE "Long Stay feat. Ryme Tyme" PERFORMER "Ed Rush & Optical" REM COMPOSER "" ISRC GBTKW1401309 INDEX 00 05:09:72FILE "09 - Long Stay feat. Ryme Tyme.wav" WAVE INDEX 01 00:00:00 TRACK 10 AUDIO TITLE "The Nemesis" PERFORMER "Ed Rush & Optical" REM COMPOSER "" ISRC GBTKW1401310 INDEX 00 05:09:07FILE "10 - The Nemesis.wav" WAVE INDEX 01 00:00:00 TRACK 11 AUDIO TITLE "Osmosis" PERFORMER "Ed Rush & Optical" REM COMPOSER "" ISRC GBTKW1401311 INDEX 00 05:58:56FILE "11 - Osmosis.wav" WAVE INDEX 01 00:00:00


[torrentc.info]_t_5670899.torrent
Торрент: Зарегистрирован ·  [ 2019-01-07 20:07 ] ·  256d21bf75d11efcf2c245f7c4e62ceb70ecea62

20 KB

Статус: проверено
Скачан: 0 раз
Размер: 464 MB
Оценка: 
(Голосов: 0)
Сказали спасибо: 0  Спасибо
Похожие темы
[Профиль]    [ЛС]
Показать сообщения:    
Ответить на тему

Текущее время: Сегодня 05:13

Часовой пояс: GMT + 7



Вы не можете начинать темы
Вы не можете отвечать на сообщения
Вы не можете редактировать свои сообщения
Вы не можете удалять свои сообщения
Вы не можете голосовать в опросах
Вы не можете прикреплять файлы к сообщениям
Вы можете скачивать файлы