(Pop) [CD] Tunde Baiyewu - Diamond In A Rock - 2013, FLAC (image+.cue), lossless

Ответить на тему
Статистика раздачи [Обновить пиров]
Размер:  221 MB   |    Зарегистрирован:  11 дней   |    Скачан:  0 раз

Полного источника не было: Никогда

 
   
 
 
 
Автор Сообщение

torrentc.info

Создавать темы 07-Янв-2019 09:55

[Цитировать]

Tunde Baiyewu / Diamond In A Rock
Жанр: Pop / Funk / Soul
Носитель: CD
Страна-производитель диска (релиза): UK
Год издания: 2013
Издатель (лейбл): Waking Dreams LLP
Номер по каталогу: WD001CD
Страна исполнителя (группы): UK
Аудиокодек: FLAC (*.flac)
Тип рипа: image+.cue
Битрейт аудио: lossless
Продолжительность: 00:36:07
Источник (релизер): собственный рип
Наличие сканов в содержимом раздачи: нет

Треклист:
01. Move
02. Blissful In No Time
03. Diamond In A Rock http://www.youtube.com/watch?v=yHA_p7LPcnc
04. Effigy
05. Awake
06. Turn The Music On
07. Fear And Fortune
08. Words In My Mouth
09. The Answer
10. We're All In This Together

Лог создания рипа

Exact Audio Copy V1.1 from 23. June 2015
Отчёт EAC об извлечении, выполненном 1. января 2019, 18:04
Tunde Baiyewu / Diamond In A Rock
Дисковод: PIONEER DVD-RW DVR-218L Adapter: 1 ID: 0
Режим чтения : ДостоверностьИспользование точного потока : ДаОтключение кэша аудио : ДаИспользование указателей C2 : Нет
Коррекция смещения при чтении : 6Способность читать области Lead-in и Lead-out : НетЗаполнение пропущенных сэмплов тишиной : ДаУдаление блоков с тишиной в начале и конце : НетПри вычислениях CRC использовались нулевые сэмплы : ДаИнтерфейс : Встроенный Win32-интерфейс для Win NT/2000
Выходной формат : Пользовательский кодировщикВыбранный битрейт : 896 kBit/sКачество : ВысокийДобавление ID3-тега : НетУтилита сжатия : C:\Program Files\FLAC\flac.exeДополнительные параметры : -V -8 -T "Date=%year%" -T "Genre=%genre%" %source%
TOC извлечённого CD
Трек | Старт | Длительность | Начальный сектор | Конечный сектор --------------------------------------------------------------------- 1 | 0:00.00 | 2:47.20 | 0 | 12544 2 | 2:47.20 | 3:16.25 | 12545 | 27269 3 | 6:03.45 | 3:58.72 | 27270 | 45191 4 | 10:02.42 | 3:00.05 | 45192 | 58696 5 | 13:02.47 | 3:10.73 | 58697 | 73019 6 | 16:13.45 | 3:57.63 | 73020 | 90857 7 | 20:11.33 | 4:09.25 | 90858 | 109557 8 | 24:20.58 | 4:23.41 | 109558 | 129323 9 | 28:44.24 | 3:19.28 | 129324 | 144276 10 | 32:03.52 | 4:02.63 | 144277 | 162489
Характеристики диапазона извлечения и сообщения об ошибках
Выбранный диапазон
Имя файла E:\Моё\EAC\Tunde Baiyewu - Diamond In A Rock.wav
Пиковый уровень 98.8 % Скорость извлечения 6.6 X Качество диапазона 100.0 % CRC теста 536BC581 CRC копии 536BC581 Копирование... OK
Ошибок не произошло
AccurateRip: сводка
Трек 1 : извлечено точно (доверие 6) [6CB0FC5B] (AR v2)Трек 2 : извлечено точно (доверие 6) [CA31B356] (AR v2)Трек 3 : извлечено точно (доверие 6) [526BB559] (AR v2)Трек 4 : извлечено точно (доверие 6) [3F7804DD] (AR v2)Трек 5 : извлечено точно (доверие 6) [8556B4C8] (AR v2)Трек 6 : извлечено точно (доверие 6) [68F7E5F2] (AR v2)Трек 7 : извлечено точно (доверие 6) [86133BE8] (AR v2)Трек 8 : извлечено точно (доверие 6) [D6BCF20C] (AR v2)Трек 9 : извлечено точно (доверие 6) [87C9A233] (AR v2)Трек 10 : извлечено точно (доверие 6) [EDEEA600] (AR v2)
Все треки извлечены точно
Конец отчёта
---- CUETools DB Plugin V2.1.6
[CTDB TOCID: 6ULWf_9nQyKZ1J0F9mmI2PLzDV0-] foundSubmit result: 6ULWf_9nQyKZ1J0F9mmI2PLzDV0- has been confirmedTrack | CTDB Status 1 | (10/10) Accurately ripped 2 | (10/10) Accurately ripped 3 | (10/10) Accurately ripped 4 | (10/10) Accurately ripped 5 | (10/10) Accurately ripped 6 | (10/10) Accurately ripped 7 | (10/10) Accurately ripped 8 | (10/10) Accurately ripped 9 | (10/10) Accurately ripped 10 | (10/10) Accurately ripped
==== Контрольная сумма отчёта F3A72A67D2D266C7FECD2B1C5CB40F838BFF64A1D828FA24394230CB4589545D ====

Содержание индексной карты (.CUE)

REM GENRE PopREM DATE 2013REM DISCID 8708760AREM COMMENT "ExactAudioCopy v1.1"PERFORMER "Tunde Baiyewu"TITLE "Diamond In A Rock"FILE "Tunde Baiyewu - Diamond In A Rock.flac" WAVE TRACK 01 AUDIO TITLE "Move" PERFORMER "Tunde Baiyewu" INDEX 01 00:00:00 TRACK 02 AUDIO TITLE "Blissful In No Time" PERFORMER "Tunde Baiyewu" INDEX 00 02:46:20 INDEX 01 02:47:20 TRACK 03 AUDIO TITLE "Diamond In A Rock" PERFORMER "Tunde Baiyewu" INDEX 01 06:03:45 TRACK 04 AUDIO TITLE "Effigy" PERFORMER "Tunde Baiyewu" INDEX 01 10:02:42 TRACK 05 AUDIO TITLE "Awake" PERFORMER "Tunde Baiyewu" INDEX 00 13:01:47 INDEX 01 13:02:47 TRACK 06 AUDIO TITLE "Turn The Music On" PERFORMER "Tunde Baiyewu" INDEX 00 16:12:45 INDEX 01 16:13:45 TRACK 07 AUDIO TITLE "Fear And Fortune" PERFORMER "Tunde Baiyewu" INDEX 01 20:11:33 TRACK 08 AUDIO TITLE "Words In My Mouth" PERFORMER "Tunde Baiyewu" INDEX 00 24:19:58 INDEX 01 24:20:58 TRACK 09 AUDIO TITLE "The Answer" PERFORMER "Tunde Baiyewu" INDEX 00 28:42:62 INDEX 01 28:44:24 TRACK 10 AUDIO TITLE "We're All In This Together" PERFORMER "Tunde Baiyewu" INDEX 00 32:01:52 INDEX 01 32:03:52

Лог проверки качества

AUDIOCHECKER v2.0 beta (build 457) - by Dester - opdester@freemail.hu~~~~~~~~~~~~~~~~~~~~~~~~~~~~~~~~~~-=== НЕ РЕДАКТИРУЙТЕ ЭТОТ ФАЙЛ! ===-
Путь: ...\Tunde Baiyewu - Diamond In A Rock
1 -=- Tunde Baiyewu - Diamond In A Rock.flac -=- CDDA (100%)
134035444

Dynamic Range

foobar2000 1.1 / Замер динамического диапазона (DR) 1.1.1
Дата отчёта: 2019-01-02 17:54:59
--------------------------------------------------------------------------------
Анализ: Tunde Baiyewu / Diamond In A Rock
--------------------------------------------------------------------------------
DR Пики RMS Продолжительность трека
--------------------------------------------------------------------------------
DR8 -0.10 дБ -10.25 дБ 2:47 01-Move
DR9 -0.10 дБ -10.22 дБ 3:16 02-Blissful In No Time
DR10 -0.10 дБ -12.40 дБ 3:59 03-Diamond In A Rock
DR7 -0.10 дБ -9.25 дБ 3:00 04-Effigy
DR12 -1.90 дБ -18.73 дБ 3:11 05-Awake
DR8 -0.10 дБ -9.70 дБ 3:58 06-Turn The Music On
DR8 -0.10 дБ -11.38 дБ 4:09 07-Fear And Fortune
DR10 -0.10 дБ -10.84 дБ 4:24 08-Words In My Mouth
DR8 -0.10 дБ -10.14 дБ 3:19 09-The Answer
DR8 -0.10 дБ -10.07 дБ 4:03 10-We're All In This Together
--------------------------------------------------------------------------------
Количество треков: 10
Реальные значения DR: DR9
Частота: 44100 Гц
Каналов: 2
Разрядность: 16
Битрейт: 857 кбит/с
Кодек: FLAC
================================================================================

Обратите внимание

Содержимое раздачи, предназначено только для персонального использования и в ознакомительных целях.
После прослушивания,материал рекомендуется удалить с Вашего жесткого диска или иного носителя.
Доп. информация: Tunde Baiyewu - вокалист славной британской группы Lighthouse Family. Поздравляю всех с Новым Годом и Рождеством!★ Приятного прослушивания! ★


[torrentc.info]_t_5668450.torrent
Торрент: Зарегистрирован ·  [ 2019-01-07 09:55 ] ·  e1fbf16e013a5cdf80aafe5abbbe1d0076cfc0cb

18 KB

Статус: проверено
Скачан: 0 раз
Размер: 221 MB
Оценка: 
(Голосов: 0)
Сказали спасибо: 0  Спасибо
[Профиль]    [ЛС]
Показать сообщения:    
Ответить на тему

Текущее время: Сегодня 05:08

Часовой пояс: GMT + 7



Вы не можете начинать темы
Вы не можете отвечать на сообщения
Вы не можете редактировать свои сообщения
Вы не можете удалять свои сообщения
Вы не можете голосовать в опросах
Вы не можете прикреплять файлы к сообщениям
Вы можете скачивать файлы