Клуб одиноких сердец сержанта Пеппера / Sgt. Pepper\'s Lonely Hearts Club Band (Майкл Шульц / Michael Schultz) [1978, США, мюзикл, фэнтези, комедия, приключения, BDRip 1080p] AVO (Живов) + Sub Eng + Original Eng

Ответить на тему
Статистика раздачи [Обновить пиров]
Размер:  11 GB   |    Зарегистрирован:  2 месяца 15 дней   |    Скачан:  1 раз

Полного источника не было: 2 месяца 8 дней

 
   
 
 
 
Автор Сообщение

Roni

Создавать темы 06-Янв-2019 16:57

[Цитировать]

Клуб одиноких сердец сержанта Пеппера / Sgt. Pepper's Lonely Hearts Club Band
Страна: США
Производство: NF Geria II Filmgesellschaft m.b.H., Robert Stigwood Organization
Год выхода: 1978
Жанр: мюзикл, фэнтези, комедия, приключения
Продолжительность: 01:51:19
Перевод: Авторский (одноголосый, закадровый) | Юрий Живов
Оригинальная аудиодорожка: английский
Субтитры: английские
Режиссер: Майкл Шульц / Michael Schultz
В ролях: Питер Фрэмптон, Бэрри Гибб, Робин Гибб, Морис Гибб, Фрэнки Ховерд, Пол Николас
Описание: Фильм показывает, как песни группы «Битлз» исполняют другие, тогда ещё начинающие рок-музыканты...

Тип релиза: BDRip 1080p
Формат файла: MKV
Видео: MPEG-4 AVC, 1920x816 (2.35:1), 23.976 fps, ~12.0 Mbps avg
Аудио №1: 48.0 kHz, AC3 Dolby Digital, 3/2 (L,C,R,l,r) + LFE ch, ~640 kbps | RUS / AVO
Аудио №2: 48.0 kHz, Digital Theater Systems, 3/2 (L,C,R,l,r) + LFE ch, ~1509 kbps | ENG
Формат файла субтитров: softsub (SRT)

Трек-лист

01. Fixing A Hole - George Burns
02. Getting Better - Peter Frampton, Bee Gees
03. Here Comes The Sun - Sandy Farina
04. I Want You (She's So Heavy) - Bee Gees, Dianne Steinberg, Paul Nicholas, Donald Pleasence
05. Good Morning, Good Morning - Paul Nicholas, Peter Frampton, Bee Gees
06. Nowwhere Man - Bee Gees
07. Mean Mr.Mustard - Frankie Howerd
08. She's Leaving Home - Bee Gees,Jay Macintosh,John Wheeler
09. Luce In The Sky With Diamonds - Dianne Steinberg
10. Oh!Darling - Robin Gibb
11. Maxwell's Silver Hammer - Steve Martin
12. Because - Alice Cooper,Bee Gees
13. Strawberry Fields Forever - Sandy Farina
14. Being For The Benefit Of Mr.Kite - Maurice Geeb, Peter Frampton, Bee Gees, George Burns
15. You Never Give Me Your Money - Dianne Steinberg, Paul Nicholas
16. Got To Get You Into My Life - Earth, Wind & Fire
17. When I'm 64 - Frankie Howerd, Sandy Farina
18. Come Together - Aerosmith
19. Golden Slumberg - Peter Frampton
20. Carry That Weight - Bee Gees
21. The Long And Winding Road - Peter Frampton
22. A Day In The Life - Barry Gibb, Bee Gees
23. Get back - Billy Preston
24. Sgt.Pepper's Lonely Hearts Club Band - The Cast

MediaInfo

GeneralUnique ID : 184579773330322488645740143954012347116 (0x8ADCC5713293283D8185C9AF27831AEC)Complete name : 1978.Sgt.Peppers.likko.mkvFormat : MatroskaFormat version : Version 4File size : 11.0 GiBDuration : 1 h 51 minOverall bit rate : 14.1 Mb/sMovie name : 1978 Sgt. Peppers Lonely Hearts Club Band/likkoEncoded date : UTC 2019-01-04 11:08:48Writing application : mkvmerge v8.3.0 ('Over the Horizon') 64bitWriting library : libebml v1.3.1 + libmatroska v1.4.2Cover : YesAttachments : cover.png
VideoID : 1Format : AVCFormat/Info : Advanced Video CodecFormat profile : High@L4.1Format settings : CABAC / 5 Ref FramesFormat settings, CABAC : YesFormat settings, ReFrames : 5 framesCodec ID : V_MPEG4/ISO/AVCDuration : 1 h 51 minBit rate : 12.0 Mb/sWidth : 1 920 pixelsHeight : 816 pixelsDisplay aspect ratio : 2.35:1Frame rate mode : ConstantFrame rate : 23.976 (24000/1001) FPSColor space : YUVChroma subsampling : 4:2:0Bit depth : 8 bitsScan type : ProgressiveBits/(Pixel*Frame) : 0.319Stream size : 9.33 GiB (85%)Title : 1978 Sgt. Peppers Lonely Hearts Club BandWriting library : x264 core 148 r2638 7599210Encoding settings : cabac=1 / ref=5 / deblock=1:-1:-1 / analyse=0x3:0x133 / me=umh / subme=11 / psy=1 / psy_rd=1.00:0.15 / mixed_ref=1 / me_range=48 / chroma_me=1 / trellis=2 / 8x8dct=1 / cqm=0 / deadzone=21,11 / fast_pskip=0 / chroma_qp_offset=-3 / threads=18 / lookahead_threads=4 / sliced_threads=0 / nr=0 / decimate=1 / interlaced=0 / bluray_compat=0 / constrained_intra=0 / bframes=12 / b_pyramid=2 / b_adapt=2 / b_bias=0 / direct=3 / weightb=1 / open_gop=0 / weightp=2 / keyint=250 / keyint_min=23 / scenecut=40 / intra_refresh=0 / rc=2pass / mbtree=0 / bitrate=12000 / ratetol=1.0 / qcomp=0.60 / qpmin=0 / qpmax=69 / qpstep=4 / cplxblur=20.0 / qblur=0.5 / ip_ratio=1.40 / pb_ratio=1.30 / aq=2:1.00Language : EnglishDefault : YesForced : No
Audio #1ID : 2Format : AC-3Format/Info : Audio Coding 3Commercial name : Dolby DigitalCodec ID : A_AC3Duration : 1 h 51 minBit rate mode : ConstantBit rate : 640 kb/sChannel(s) : 6 channelsChannel layout : L R C LFE Ls RsSampling rate : 48.0 kHzFrame rate : 31.250 FPS (1536 SPF)Bit depth : 16 bitsCompression mode : LossyStream size : 510 MiB (5%)Title : Одноголосый, Ю. ЖивовLanguage : RussianService kind : Complete MainDefault : YesForced : No
Audio #2ID : 3Format : DTSFormat/Info : Digital Theater SystemsCodec ID : A_DTSDuration : 1 h 51 minBit rate mode : ConstantBit rate : 1 509 kb/sChannel(s) : 6 channelsChannel layout : C L R Ls Rs LFESampling rate : 48.0 kHzFrame rate : 93.750 FPS (512 SPF)Bit depth : 24 bitsCompression mode : LossyStream size : 1.17 GiB (11%)Title : DTS 5.1Language : EnglishDefault : NoForced : No
Text #1ID : 4Format : UTF-8Codec ID : S_TEXT/UTF8Codec ID/Info : UTF-8 Plain TextDuration : 1 h 50 minBit rate : 44 b/sCount of elements : 1106Stream size : 35.7 KiB (0%)Title : 1Language : EnglishDefault : NoForced : No
Text #2ID : 5Format : UTF-8Codec ID : S_TEXT/UTF8Codec ID/Info : UTF-8 Plain TextDuration : 1 h 51 minBit rate : 49 b/sCount of elements : 1202Stream size : 40.7 KiB (0%)Title : 2Language : EnglishDefault : NoForced : No
Menu00:00:00.000 : en:Chapter 0100:05:38.296 : en:Chapter 0200:07:24.360 : en:Chapter 0300:10:31.797 : en:Chapter 0400:12:33.836 : en:Chapter 0500:16:14.348 : en:Chapter 0600:20:20.761 : en:Chapter 0700:30:10.266 : en:Chapter 0800:33:00.436 : en:Chapter 0900:34:31.861 : en:Chapter 1000:35:09.065 : en:Chapter 1100:39:38.667 : en:Chapter 1200:43:25.185 : en:Chapter 1300:46:50.766 : en:Chapter 1400:51:01.141 : en:Chapter 1500:55:11.266 : en:Chapter 1601:01:04.285 : en:Chapter 1701:05:11.991 : en:Chapter 1801:09:26.036 : en:Chapter 1901:13:26.652 : en:Chapter 2001:16:44.850 : en:Chapter 2101:22:36.534 : en:Chapter 2201:25:07.894 : en:Chapter 2301:30:18.371 : en:Chapter 2401:32:16.572 : en:Chapter 2501:34:19.403 : en:Chapter 2601:37:15.996 : en:Chapter 2701:41:26.371 : en:Chapter 2801:44:41.984 : en:Chapter 2901:46:43.730 : en:Chapter 3001:51:18.922 : en:Chapter 31

Скриншоты



[torrentc.info]_t_5669345.torrent
Торрент: Зарегистрирован ·  [ 2019-01-06 16:57 ] ·  4801111365d700d2e9e8d1f166534e5ce5de018a

55 KB

Статус: проверено
Скачан: 1 раз
Размер: 11 GB
Оценка: 
(Голосов: 0)
Сказали спасибо: 0  Спасибо
Похожие темы
[Профиль]    [ЛС]
Показать сообщения:    
Ответить на тему

Текущее время: Сегодня 01:12

Часовой пояс: GMT + 7



Вы не можете начинать темы
Вы не можете отвечать на сообщения
Вы не можете редактировать свои сообщения
Вы не можете удалять свои сообщения
Вы не можете голосовать в опросах
Вы не можете прикреплять файлы к сообщениям
Вы можете скачивать файлы