Лего. Холодное сердце. Северное сияние / Lego. Frozen. Northern Lights (Стивен Спенсер / Steven Spencer) [2016, США, мультфильм, короткометражка, приключение, HDTV 1080i] DUB

Ответить на тему
Статистика раздачи [Обновить пиров]
Размер:  618 MB   |    Зарегистрирован:  14 дней   |    Скачан:  0 раз

Полного источника не было: Никогда

 
   
 
 
 
Автор Сообщение

torrentc.info

Создавать темы 04-Янв-2019 23:22

[Цитировать]

Лего. Холодное сердце. Северное сияние / Lego. Frozen. Northern Lights
Страна: США
Жанр: мультфильм, короткометражка, приключение
Продолжительность: 00:21:09
Год выхода: 2016
Перевод: Профессиональный (дублированный)
Русские субтитры: нет
Режиссёр: Стивен Спенсер : Steven Spencer
Описание: Удивительные приключения любимых героев из королевства Эренделл продолжаются! На этот раз Анне, Эльзе, Кристоффу и их друзьям предстоит спасти Северное сияние. На пути к цели их ждут невероятные открытия на просторах зимнего леса.
:
[url=tracker.php?nm=Lego.%20Frozen.%20Northern%20Lights]Все раздачи мультсериала[/url]
Звук тут взят: http://Torrentc/forum/viewtopic.php?t=5369824
Качество: HDTV 1080i
Формат файла: MKV
Видео: Video: MPEG4 Video (H264) 1920x1080 25fps 3 427 Kbps
Аудио: Audio: Dolby AC3 48000Hz stereo 192kbps [A: Russian [rus] (ac3, 48000 Hz, stereo, 192 kb/s
Аудио 2: Audio: Dolby AC3 48000Hz 6ch 384kbps [A: German [ger] (ac3, 48000 Hz, 5.1, 384 kb/s)]
Субтитры: отсутствуют

Подробные технические данные

GeneralUnique ID : 318849457835588162362956815830575201882 (0xEFE02BFEFFA295F892A5CDDC098FBE5A)Complete name : D:\LEGO.Frozen.Northern Lights.2016. HDTV 1080i.mkvFormat : MatroskaFormat version : Version 4 / Version 2File size : 618 MiBDuration : 21mn 8sOverall bit rate : 4 085 KbpsMovie name : LEGO.Frozen.Northern Lights.2016. HDTV 1080iEncoded date : UTC 2019-01-04 10:17:39Writing application : mkvmerge v29.0.0 ('Like It Or Not') 64-bitWriting library : libebml v1.3.6 + libmatroska v1.4.9DURATION : 00:21:08.640000000NUMBER_OF_FRAMES : 39645NUMBER_OF_BYTES : 60894720_STATISTICS_WRITING_APP : mkvmerge v29.0.0 ('Like It Or Not') 64-bit_STATISTICS_WRITING_DATE_UTC : 2019-01-04 10:17:39_STATISTICS_TAGS : BPS DURATION NUMBER_OF_FRAMES NUMBER_OF_BYTES
VideoID : 2Format : AVCFormat/Info : Advanced Video CodecFormat profile : Main@L4.0Format settings, CABAC : YesFormat settings, ReFrames : 4 framesFormat settings, GOP : M=4, N=24Codec ID : V_MPEG4/ISO/AVCDuration : 21mn 8sBit rate : 3 427 KbpsWidth : 1 920 pixelsHeight : 1 080 pixelsDisplay aspect ratio : 16:9Frame rate mode : ConstantFrame rate : 25.000 fpsColor space : YUVChroma subsampling : 4:2:0Bit depth : 8 bitsScan type : MBAFFScan order : Top Field FirstBits/(Pixel*Frame) : 0.066Stream size : 518 MiB (84%)Default : YesForced : No
Audio #1ID : 1Format : AC-3Format/Info : Audio Coding 3Mode extension : CM (complete main)Format settings, Endianness : BigCodec ID : A_AC3Duration : 21mn 8sBit rate mode : ConstantBit rate : 192 KbpsChannel(s) : 2 channelsChannel positions : Front: L RSampling rate : 48.0 KHzBit depth : 16 bitsCompression mode : LossyStream size : 29.0 MiB (5%)Language : RussianDefault : YesForced : No
Audio #2ID : 3Format : AC-3Format/Info : Audio Coding 3Mode extension : CM (complete main)Format settings, Endianness : BigCodec ID : A_AC3Duration : 21mn 8sBit rate mode : ConstantBit rate : 384 KbpsChannel(s) : 2 channelsChannel positions : Front: L RSampling rate : 48.0 KHzBit depth : 16 bitsCompression mode : LossyStream size : 58.1 MiB (9%)Language : GermanDefault : NoForced : No

Скриншоты



[torrentc.info]_t_5669287.torrent
Торрент: Зарегистрирован ·  [ 2019-01-04 23:22 ] ·  9455c165caaa3bb3d07491cec89a959c458b318c

13 KB

Статус: проверено
Скачан: 0 раз
Размер: 618 MB
Оценка: 
(Голосов: 0)
Сказали спасибо: 0  Спасибо
Похожие темы
[Профиль]    [ЛС]
Показать сообщения:    
Ответить на тему

Текущее время: Сегодня 05:23

Часовой пояс: GMT + 7



Вы не можете начинать темы
Вы не можете отвечать на сообщения
Вы не можете редактировать свои сообщения
Вы не можете удалять свои сообщения
Вы не можете голосовать в опросах
Вы не можете прикреплять файлы к сообщениям
Вы можете скачивать файлы