Дамы / Les Dames / Jeu de Dame / Pack of Queens 2 / Сезон: 1 / Серии: 7-9 (Патрис Мартино / Patrice Martineau, Камий Борд-Рене / Camille Bordes-Resnais) [2014 - 2015, Бельгия, Франция, детектив, DVB] Original (Fra) + Rus Sub (ECLAIR)

Reply to topic
DL-List and Torrent activity [Update пиров]
Size:  7.24 GB   |    Registered:  9 months 12 days   |    Completed:  0 times

Seeder not seen: Never

 
   
 
 
 
Author Message

Пушистый

Post 02-Jan-2019 15:24

[Quote]

Дамы
Les Dames- Год выхода: 2014 - 2015
Страна: Бельгия, Франция
Жанр: детектив, экранизация
Продолжительность: 01:42:00Перевод: Субтитры (перевод И. Рыбкиной, ECLAIR)
Режиссёр: Патрис Мартино / Patrice Martineau, Камий Борд-Рене / Camille Bordes-Resnais
В ролях: Тьерри Годар / Thierry Godard (Martin), Валери Декобер-Корецки / Valerie Decobert-Koretzky (Jeannette), Жан-Туссен Бернар / Jean-Toussaint Bernard (Olivier Roche), Шарли Фуке / Charley Fouquet (Marion Delambre), Софи-Шарлотт Юссон / Sophie-Charlotte Husson (Belier), Анн Луаре / Anne Loiret (Florence Ruben), Манюэль Блан / Manuel Blanc (Bruno), Клое Ламбер / Chloé Lambert (Louise), Марилин Канто / Marilyne Canto (Roussel), Фабио Дзенони / Fabio Zenoni (Romain Daley), Паскаль Д'Инка / Pasquale D'Inca (Mousseaux)
Описание: По циклу детективных романов Алексис Лекей / Alexis Lecaye.
Алексис Лекей — блестящий мастер детективного жанра, лауреат престижных премий "Французский саспенс" и "Приключенческий роман года". Почти все его книги экранизированы, а знаменитый телесериал "Жюли Леско" пользуется популярностью уже 20 лет. Автор романов с названиями карточных дам. "Червонная дама" открывает цикл романов — и успешных телефильмов — о комиссаре Мартене, сыщике от бога и любимце женщин, не менее известном в сегодняшней Франции, чем комиссар Мегрэ. Все "Дамы" экранизированы для французского телевидения.
Доп. информация: Hot Bird (13.0°E) TV5MONDE Europe DVB-S
[url=tracker.php?g=foreign_serials&nm=Les+Dames] [/url]
Качество: DVB
Формат файла: MKV
Видео: MPEG Video 2, 720x576@1024x576 (16:9), 25 fps, ~3064 kbps avg, 0.296 bit/pixel
Аудио: MPEG Audio 2, 2 ch, 48 kHz, 192 kbps - французский
Субтитры: русские, немецкие, нидерландские, румынские, испанские - prerendered (IDX+SUB); английские, французские - softsub (SRT)
Реклама: отсутствует

Список серий

Сезон 1, Эпизод 7: Пепельная дама / Dame de cendres (2014)
Сезон 1, Эпизод 8: Огненная дама / Dame de Feu (2015)
Сезон 1, Эпизод 9: Ледяная дама / Dame de Glace (2015)

MediaInfo

GeneralUnique ID : 112229871622246146059653743687772061577 (0x546EAFE1EEA53990DC13C5F24D1ABF89)Complete name : [apreder]Les_Dames_s.1_ep.7(2013)DVB.mkvFormat : MatroskaFormat version : Version 2File size : 2.37 GiBDuration : 1 h 42 minOverall bit rate mode : VariableOverall bit rate : 3 322 kb/sMovie name : Les DamesReleased date : 2014-01-24Encoded date : UTC 2018-08-14 11:41:00Writing application : mkvmerge v25.0.0 ('Prog Noir') 64-bitWriting library : libebml v1.3.6 + libmatroska v1.4.9Cover : YesAttachments : cover.jpg / small_cover.jpgACTOR : Thierry Godard, Valerie Decobert-Koretzky, Jean-Toussaint BernardDIRECTOR : Patrice MartineauGENRE : CrimeIMDB : tt3459446KEYWORDS : TorrentcLAW_RATING : 16+SUMMARY : s.1, ep.07 Dame de cendres
VideoID : 1Format : MPEG VideoFormat version : Version 2Format profile : Main@MainFormat settings : CustomMatrix / BVOPFormat settings, BVOP : YesFormat settings, Matrix : CustomFormat settings, GOP : VariableFormat settings, picture structure : FrameCodec ID : V_MPEG2Codec ID/Info : MPEG 1 or 2 VideoDuration : 1 h 42 minBit rate mode : VariableBit rate : 3 064 kb/sWidth : 720 pixelsHeight : 576 pixelsDisplay aspect ratio : 16:9Frame rate mode : ConstantFrame rate : 25.000 FPSStandard : PALColor space : YUVChroma subsampling : 4:2:0Bit depth : 8 bitsScan type : InterlacedScan order : Top Field FirstCompression mode : LossyBits/(Pixel*Frame) : 0.296Time code of first frame : 00:00:00:00Time code source : Group of pictures headerGOP, Open/Closed : OpenGOP, Open/Closed of first frame : ClosedStream size : 2.19 GiB (92%)Default : YesForced : No
AudioID : 2Format : MPEG AudioFormat version : Version 1Format profile : Layer 2Format settings : Joint stereo / Intensity Stereo + MS StereoCodec ID : A_MPEG/L2Codec ID/Hint : MP2Duration : 1 h 42 minBit rate mode : ConstantBit rate : 192 kb/sChannel(s) : 2 channelsSampling rate : 48.0 kHzCompression mode : LossyStream size : 140 MiB (6%)Language : FrenchDefault : YesForced : No
Text #1ID : 3Format : VobSubCodec ID : S_VOBSUBCodec ID/Info : Picture based subtitle format used on DVDsLanguage : RussianDefault : NoForced : No
Text #2ID : 4Format : UTF-8Codec ID : S_TEXT/UTF8Codec ID/Info : UTF-8 Plain TextLanguage : EnglishDefault : NoForced : No
Text #3ID : 5Format : UTF-8Codec ID : S_TEXT/UTF8Codec ID/Info : UTF-8 Plain TextLanguage : FrenchDefault : NoForced : No
Text #4ID : 6Format : VobSubCodec ID : S_VOBSUBCodec ID/Info : Picture based subtitle format used on DVDsLanguage : GermanDefault : NoForced : No
Text #5ID : 7Format : VobSubCodec ID : S_VOBSUBCodec ID/Info : Picture based subtitle format used on DVDsLanguage : DutchDefault : NoForced : No
Text #6ID : 8Format : VobSubCodec ID : S_VOBSUBCodec ID/Info : Picture based subtitle format used on DVDsLanguage : RomanianDefault : NoForced : No
Text #7ID : 9Format : VobSubCodec ID : S_VOBSUBCodec ID/Info : Picture based subtitle format used on DVDsLanguage : SpanishDefault : NoForced : No

Скриншоты


Резервные скриншоты


-

Внимание! Раздача ведётся путём добавления новых выпусков

Внимание! Раздача ведётся путём добавления новых выпусков; при каждом добавлении создаётся новый торрент. Чтобы начать докачку нового выпуска, пользователям необходимо сделать следующее:
(1) остановить скачивание,
(2) удалить старый торрент у себя из клиента (старые серии удалять не надо),
(3) скачать новый торрент и запустить его у себя в клиенте вместо старого, при этом указать клиенту путь в старую папку куда и должно происходить скачивание новых выпусков.
Ваш клиент при этом должен произвести хеширование (проверку) старой папки (если не производит сам - помогите ему сделать это). В результате он будет докачивать только те выпуски, которых у Вас ещё нет. Старые выпуски при этом не удаляются, а продолжают раздаваться!
Eсли Вы уже удалили старые выпуски, то предотвратить их повторную закачку можно, сняв галочки в соответствующих местах при запуске нового торрента. По возможности, желательно не удалять старые выпуски как можно дольше, чтобы релизёр не только продолжал раздавать старые выпуски, но и смог сконцентрироваться на новых.
- [4'309]


[geo-torrent.biz]_t_5600311.torrent
Torrent: Registered ·  [ 2019-01-02 14:14 ] ·  7177955832a2a0cced1ad7ac87152279ddd8b534

10 KB

Status: checked
Completed: 0 times
Size: 7.24 GB
Rating: 
(Votes: 0)
Say thanks: 0  Thanks
Похожие темы
[Profile]    [PM]
Display posts from previous:    
Reply to topic

The time now is: Today 08:54

All times are GMT + 7 Hours



You cannot post new topics in this forum
You cannot reply to topics in this forum
You cannot edit your posts in this forum
You cannot delete your posts in this forum
You cannot vote in polls in this forum
You cannot attach files in this forum
You can download files in this forum