[iPhone] Великолепные Рубаки / Slayers Gorgeous (Ватанабэ Хироси / Watanabe Hiroshi) [1998, фэнтези, приключения, комедия, DVDRip, 480x368]

Ответить на тему
Статистика раздачи [Обновить пиров]
Размер:  521 MB   |    Зарегистрирован:  2 месяца 19 дней   |    Скачан:  0 раз

Полного источника не было: Никогда

 
   
 
 
 
Автор Сообщение

Mr_Fox

Создавать темы 02-Янв-2019 14:49

[Цитировать]

Великолепные Рубаки-
Оригинальное название: スレイヤーズごぅじゃす
Английское название: Slayers Gorgeous-Год выхода:
1998
Страна: Япония
Жанр:фэнтези, приключения, комедия
Продолжительность: 01:00:00-Перевод : Любительский Одноголосый
Субтитры: -Дата выхода: 01.08.1998-Режиссёр: Ватанабэ Хироси
Студия: -Описание: Четвёртая и предпоследняя полнометражка великих и ужасных Рубак .- || || || -Качество: DVDRip
Формат файла: *.m4v
Видео кодек: H.264
Аудио кодек: ААС
Разрешение: 480х368
Другие параметры видео: 896 Кбит/сек, 4:3, 23,970 кадр/сек
Аудио : 160 Кбит/сек, 2 канала(ов), 48,0 КГц
Аудио : 160 Кбит/сек, 2 канала(ов), 48,0 КГц
Вшитая обложка: есть
Доп. теги (режиссёр, актёры и т.д.): есть
Телешоу/видеоклип : есть
Главы: нет
Серия/сезон: есть

MediaInfo

Формат файла                           : MPEG-4
Профиль формата                  : Base Media / Version 2
Идентификатор кодека             : mp42
Размер файла                     : 521 Мбайт
Продолжительность                : 59 м.
Общий поток                      : 1219 Кбит/сек
Название фильма                  : Slayers Gorgeous
Жанр                             : Science Fiction
Дата кодирования                 : 1998
Дата пометки                     : UTC 2012-04-29 13:43:56
Программа кодирования            : HandBrake 0.9.6 2012022800
Обложка                          : Yes
iTunMOVI                         :  /  /  /  /  directors /   /    /    name /    Ватанабэ Хироси /    /   /  /
desc                             : Четвёртая и предпоследняя полнометражка великих и ужасных Рубак
ldes                             : Четвёртая и предпоследняя полнометражка великих и ужасных Рубак
stik                             : 9
Видео
Идентификатор                    : 1
Формат файла                           : AVC
Формат файла/Информация                : Advanced Video Codec
Профиль формата                  : Baseline@L3.0
Параметр CABAC формата           : Нет
Параметр ReFrames формата        : 4 кадры
Идентификатор кодека             : avc1
Идентификатор кодека/Информация  : Advanced Video Coding
Продолжительность                : 59 м.
Вид битрейта                     : Переменный
Битрейт                          : 896 Кбит/сек
Ширина                           : 480 пикс.
Высота                           : 368 пикс.
Соотношение сторон               : 4:3
Режим частоты кадров             : Переменный
Частота кадров                   : 29,970 кадр/сек
Минимальная частота кадров       : 29,960 кадр/сек
Максимальная частота кадров      : 29,970 кадр/сек
Цветовое пространство            : YUV
Подвыборка цветности             : 4:2:0
Битовая глубина                  : 8 бит
Тип развёртки                    : Прогрессивная
Бит/(Пиксели*Кадры)              : 0.169
Размер потока                    : 382 Мбайт (73%)
Библиотека кодирования           : x264 core 120
Настройки программы              : cabac=0 / ref=4 / deblock=1:0:0 / analyse=0x1:0x131 / me=umh / subme=6 / psy=1 / psy_rd=0.00:0.00 / mixed_ref=1 / me_range=16 / chroma_me=1 / trellis=0 / 8x8dct=0 / cqm=0 / deadzone=21,11 / fast_pskip=0 / chroma_qp_offset=0 / threads=6 / sliced_threads=0 / nr=0 / decimate=1 / interlaced=0 / bluray_compat=0 / constrained_intra=0 / bframes=0 / weightp=0 / keyint=300 / keyint_min=30 / scenecut=40 / intra_refresh=0 / rc_lookahead=40 / rc=2pass / mbtree=1 / bitrate=896 / ratetol=1.0 / qcomp=0.60 / qpmin=3 / qpmax=69 / qpstep=4 / cplxblur=20.0 / qblur=0.5 / vbv_maxrate=1500 / vbv_bufsize=2000 / nal_hrd=none / ip_ratio=1.40 / aq=1:1.00
Дата кодирования                 : UTC 2012-04-21 15:09:14
Дата пометки                     : UTC 2012-04-21 15:20:20
Основные цвета                   : BT.601-6 525, BT.1358 525, BT.1700 NTSC, SMPTE 170M
Характеристики трансфера         : BT.709-5, BT.1361
Коэффициенты матрицы             : BT.601-6 525, BT.1358 525, BT.1700 NTSC, SMPTE 170M
Аудио #1
Идентификатор                    : 2
Формат файла                           : AAC
Формат файла/Информация                : Advanced Audio Codec
Профиль формата                  : LC
Идентификатор кодека             : 40
Продолжительность                : 59 м.
Вид битрейта                     : Переменный
Битрейт                          : 160 Кбит/сек
Максимальный битрейт             : 197 Кбит/сек
Канал(ы)                         : 2 канала(ов)
Расположение каналов             : Front: L R
Частота                          : 48,0 КГц
Метод сжатия                     : С потерями
Размер потока                    : 68,4 Мбайт (13%)
Дата кодирования                 : UTC 2012-04-21 15:09:14
Дата пометки                     : UTC 2012-04-21 15:20:19
Аудио #2
Идентификатор                    : 3
Формат файла                           : AAC
Формат файла/Информация                : Advanced Audio Codec
Профиль формата                  : LC
Идентификатор кодека             : 40
Продолжительность                : 59 м.
Вид битрейта                     : Переменный
Битрейт                          : 160 Кбит/сек
Максимальный битрейт             : 213 Кбит/сек
Канал(ы)                         : 2 канала(ов)
Расположение каналов             : Front: L R
Частота                          : 48,0 КГц
Метод сжатия                     : С потерями
Размер потока                    : 68,3 Мбайт (13%)
Язык                             : English
Дата кодирования                 : UTC 2012-04-21 15:09:14
Дата пометки                     : UTC 2012-04-21 15:20:19
Текст #1
Идентификатор                    : 4
Формат файла                           : Timed text
Режим смешивания                 : sbtl
Идентификатор кодека             : tx3g
Продолжительность                : 55 м.
Вид битрейта                     : Переменный
Битрейт                          : 65 бит/сек
Размер потока                    : 26,6 Кбайт (0%)
Дата кодирования                 : UTC 2012-04-21 15:09:14
Дата пометки                     : UTC 2012-04-21 15:19:48
Текст #2
Идентификатор                    : 5
Формат файла                           : Timed text
Режим смешивания                 : sbtl
Идентификатор кодека             : tx3g
Продолжительность                : 55 м.
Вид битрейта                     : Переменный
Битрейт                          : 19 бит/сек
Размер потока                    : 7,63 Кбайт (0%)
Язык                             : Russian
Дата кодирования                 : UTC 2012-04-21 15:09:14
Дата пометки                     : UTC 2012-04-21 15:19:48

Скриншоты



[torrentc.info]_t_4041440.torrent
Торрент: Зарегистрирован ·  [ 2019-01-02 14:14 ] ·  19e902eeafbcf68123be8d21a65193d880097acf

1 KB

Статус: проверено
Скачан: 0 раз
Размер: 521 MB
Оценка: 
(Голосов: 0)
Сказали спасибо: 0  Спасибо
Похожие темы
[Профиль]    [ЛС]
Показать сообщения:    
Ответить на тему

Текущее время: Сегодня 01:00

Часовой пояс: GMT + 7



Вы не можете начинать темы
Вы не можете отвечать на сообщения
Вы не можете редактировать свои сообщения
Вы не можете удалять свои сообщения
Вы не можете голосовать в опросах
Вы не можете прикреплять файлы к сообщениям
Вы можете скачивать файлы