Облепиховое лето (Виктор Алферов) [2018, биография, драма, WEB-DLRip]

Ответить на тему
Статистика раздачи [Обновить пиров]
Размер:  746 MB   |    Зарегистрирован:  3 месяца 6 дней   |    Скачан:  2 раза

Полного источника не было: 1 месяц 2 дня

 
   
 
 
 
Автор Сообщение

Roni

Создавать темы 16-Дек-2018 00:01

[Цитировать]

Облепиховое лето
Жанр: биография, драма
Год выхода: 2018
Продолжительность: 01:31:11
Режиссёр: Виктор Алферов
В ролях: Андрей Мерзликин, Сергей Агафонов, Сергей Каплунов, Анна Перелешина, Кирилл Рубцов, Полина Чернышова, Александр Усердин, Евгений Сытый, Екатерина Унтилова, Яна Есипович
Описание: Фильм о жизни и гибели великого советского драматурга Александра Вампилова. Он задыхался в коридорах и кабинетах. Стремился вырваться из замкнутого круга. На родину, к природе, к своим корням. К истории семьи, своего отца, расстрелянного в 38-ом году. И вот в августе 1972-ого, в облепиховое лето, он едет на Байкал, чтобы купить дом на озере. И остаётся там навсегда.
Кинопоиск
Sample
Качество видео: WEB-DLRip
Формат файла: AVI
Видео: 688x288 (2.39:1), 24.000 fps, XviD build 73 ~1006 kbps avg, 0.21 bit/pixel
Аудио: 48 kHz, MPEG Layer 3, 2 ch, ~128.00 kbps avg

MediaInfo

General
Complete name : D:\Облепиховое лето 2018 WEB-DLRip.avi
Format : AVI
Format/Info : Audio Video Interleave
File size : 746 MiB
Duration : 1 h 31 min
Overall bit rate : 1 144 kb/s
Writing application : VirtualDubMod 1.5.10.3 | www.virtualdub-fr.org || (build 2550/release)
Writing library : VirtualDubMod build 2550/release
Video
ID : 0
Format : MPEG-4 Visual
Format profile : Advanced Simple@L5
Format settings : BVOP1
Format settings, BVOP : 1
Format settings, QPel : No
Format settings, GMC : No warppoints
Format settings, Matrix : Default (MPEG)
Codec ID : XVID
Codec ID/Hint : XviD
Duration : 1 h 31 min
Bit rate : 1 007 kb/s
Width : 688 pixels
Height : 288 pixels
Display aspect ratio : 2.40:1
Frame rate : 24.000 FPS
Color space : YUV
Chroma subsampling : 4:2:0
Bit depth : 8 bits
Scan type : Progressive
Compression mode : Lossy
Bits/(Pixel*Frame) : 0.212
Stream size : 656 MiB (88%)
Writing library : XviD 73
Audio
ID : 1
Format : MPEG Audio
Format version : Version 1
Format profile : Layer 3
Codec ID : 55
Codec ID/Hint : MP3
Duration : 1 h 31 min
Bit rate mode : Constant
Bit rate : 128 kb/s
Channel(s) : 2 channels
Sampling rate : 48.0 kHz
Frame rate : 41.667 FPS (1152 SPF)
Compression mode : Lossy
Stream size : 83.5 MiB (11%)
Alignment : Aligned on interleaves
Interleave, duration : 42 ms (1.00 video frame)
Interleave, preload duratio : 504 ms
Writing library : LAME3.99r
Encoding settings : -m s -V 4 -q 2 -lowpass 17 -b 128

Скриншоты





[torrentc.info]_t_5656316.torrent
Торрент: Зарегистрирован ·  [ 2018-12-15 23:59 ] ·  d991bd97b2e253a65a806e60f125102ecb2d8856

15 KB

Статус: проверено
Скачан: 2 раз
Размер: 746 MB
Оценка: 
(Голосов: 0)
Сказали спасибо: 0  Спасибо
Похожие темы
[Профиль]    [ЛС]
Показать сообщения:    
Ответить на тему

Текущее время: Сегодня 01:07

Часовой пояс: GMT + 7



Вы не можете начинать темы
Вы не можете отвечать на сообщения
Вы не можете редактировать свои сообщения
Вы не можете удалять свои сообщения
Вы не можете голосовать в опросах
Вы не можете прикреплять файлы к сообщениям
Вы можете скачивать файлы