Помешанный на времени / Time Freak (Эндрю Боулер / Andrew Bowler) [2018, США, фантастика, драма, мелодрама, комедия, WEB-DLRip] Dub (iTunes) + Sub (Eng) + Original Eng

Ответить на тему
 
Автор Сообщение

torrentc.info

Создавать темы 07-Дек-2018 01:52

[Цитировать]

Помешанный на времени / Time Freak
[img=right]https://i4.imageban.ru/out/2018/12/06/8ba4975757825...78036f.png[/img]
Страна: США
Жанр: фантастика, драма, мелодрама, комедия
Год выхода: 2018
Продолжительность: 01:44:49-Перевод: Профессиональный (дублированный) | iTunes
Субтитры: английские
Оригинальная аудиодорожка: английский-Режиссер: Эндрю Боулер / Andrew Bowler-В ролях: Эйса Баттерфилд, Софи Тернер, Скайлер Гизондо, Обри Рейнольдс, Джозеф Парк, Кэйден Дж. Грегор, Корал Чэмберс, Марк Блокович, Мэри Элизабет Бойлэн, Ками Кристиансен-Описание: Бросила девушка? Неужели уже ничего нельзя изменить? Можно! Студент-физик изобретает машину времени и отправляется в недалекое прошлое, чтобы исправить ошибки. В результате фатального сбоя главным действующим лицом этой любовной истории становится его лучший друг. С кем же останется девушка?-[img]https://rating.kinopoisk.ru/1048852.gif[/img]-Качество видео: WEB-DLRip
Формат файла: AVI
Видео: 720x384 (1.88:1), 23.976 fps, XviD build 73 ~2135 kbps avg, 0.32 bit/pixel
Аудио: 48 kHz, AC3 Dolby Digital, 3/2 (L,C,R,l,r) + LFE ch, ~384 kbps | rus
Аудио: 48 kHz, AC3 Dolby Digital, 3/2 (L,C,R,l,r) + LFE ch, ~448 kbps | eng-

Сэмпл-

MediaInfo

Формат файла                                   : AVI
Формат файла/Информация                        : Audio Video Interleave
Профиль формата                          : OpenDML
Размер файла                             : 2,18 Гбайт
Продолжительность                        : 1 ч. 44 м.
Общий поток                              : 2974 Кбит/сек
Программа кодирования                    : VirtualDubMod 1.5.10.3 | www.virtualdub-fr.org || (build 2550/release)
Библиотека кодирования                   : VirtualDubMod build 2550/release
Видео
Идентификатор                            : 0
Формат файла                                   : MPEG-4 Visual
Профиль формата                          : Advanced Simple@L5
Настройки формата                        : BVOP1 / Custom Matrix
Параметр BVOP формата                    : 1
Параметр QPel формата                    : Нет
Параметр GMC формата                     : Без точки перехода
Параметр матрицы формата                 : Выборочная
Идентификатор кодека                     : XVID
Идентификатор кодека/Подсказка           : XviD
Продолжительность                        : 1 ч. 44 м.
Битрейт                                  : 2125 Кбит/сек
Ширина                                   : 720 пикселей
Высота                                   : 384 пикселя
Соотношение сторон                       : 1,85:1
Частота кадров                           : 23,976 (24000/1001) кадра/сек
Цветовое пространство                    : YUV
Субдискретизация насыщенности            : 4:2:0
Битовая глубина                          : 8 бит
Тип развёртки                            : Прогрессивная
Метод сжатия                             : С потерями
Бит/(Пиксели*Кадры)                      : 0.321
Размер потока                            : 1,56 Гбайт (71%)
Библиотека кодирования                   : XviD 73
Аудио #1
Идентификатор                            : 1
Формат файла                                   : AC-3
Формат файла/Информация                        : Audio Coding 3
Коммерческое название                    : Dolby Digital
Идентификатор кодека                     : 2000
Продолжительность                        : 1 ч. 44 м.
Вид битрейта                             : Постоянный
Битрейт                                  : 384 Кбит/сек
Каналы                                   : 6 каналов
Channel layout                           : L R C LFE Ls Rs
Частота                                  : 48,0 КГц
Частота кадров                           : 31,250 кадров/сек (1536 SPF)
Битовая глубина                          : 16 бит
Метод сжатия                             : С потерями
Размер потока                            : 288 Мбайт (13%)
Выравнивание                             : Разделение по промежуткам
Продолжительность промежутка             : 42  мс. (1,00 видеокадр)
Время предзагрузки промежутка            : 500  мс.
ServiceKind/String                       : Complete Main
Аудио #2
Идентификатор                            : 2
Формат файла                                   : AC-3
Формат файла/Информация                        : Audio Coding 3
Коммерческое название                    : Dolby Digital
Идентификатор кодека                     : 2000
Продолжительность                        : 1 ч. 44 м.
Вид битрейта                             : Постоянный
Битрейт                                  : 448 Кбит/сек
Каналы                                   : 6 каналов
Channel layout                           : L R C LFE Ls Rs
Частота                                  : 48,0 КГц
Частота кадров                           : 31,250 кадров/сек (1536 SPF)
Битовая глубина                          : 16 бит
Метод сжатия                             : С потерями
Размер потока                            : 336 Мбайт (15%)
Выравнивание                             : Разделение по промежуткам
Продолжительность промежутка             : 42  мс. (1,00 видеокадр)
Время предзагрузки промежутка            : 500  мс.
ServiceKind/String                       : Complete Main
[Профиль]    [ЛС]
Показать сообщения:    
Ответить на тему

Текущее время: Сегодня 13:33

Часовой пояс: GMT + 7



Вы не можете начинать темы
Вы не можете отвечать на сообщения
Вы не можете редактировать свои сообщения
Вы не можете удалять свои сообщения
Вы не можете голосовать в опросах
Вы не можете прикреплять файлы к сообщениям
Вы не можете скачивать файлы