Попутчик (Иван Киасашвили) [1986, Драма, приключения, SATRip] Original Rus + Sub Rus

Ответить на тему
Статистика раздачи [Обновить пиров]
Размер:  1.09 GB   |    Зарегистрирован:  9 дней   |    Скачан:  0 раз

Полного источника не было: Никогда

 
   
 
 
 
Автор Сообщение

torrentc.info

Создавать темы 07-Дек-2018 01:52

[Цитировать]

Попутчик
Студия: Мосфильм
Жанр: Драма, приключения
Год выхода: 1986
Продолжительность: 01:17:07
Режиссер: Иван Киасашвили
В ролях: Александр Збруев, Валерий Приёмыхов, Иван Бортник, Тамара Дегтярева, Всеволод Шестаков, Евгений Важенин, Надежда Тимохина, Марьяна Полтева, Андрей Смоляков, Владимир Сычев, Игорь Махров, Владимир Белоусов, Александр Берда, Михаил Богдасаров, Юрий Горин, Ирина Знаменщикова, Галикс Колчицкий, Александр Краснов, Владимир Пискунов
Описание: Изобретатель-самоучка Костылин, убежденный в целесообразности своей последней работы, на этот раз решил добиваться признания до конца. Его письма прочитывались в столичном НИИ Жилиным, и возвращались изобретателю с одними и теми же отписками до тех пор, пока о бюрократе не напечатали фельетон в центральной газете. И теперь Жилин, чтобы доказать свою правоту, едет к Костылину, который волею случая оказался его попутчиком…
Дополнительная информация:
Автор релиза - [img]https://img11.lostpic.net/2018/07/24/6c16c23c27890c...8129c8.gif[/img]
Источник видео и субтитров - DVB 576i TS - моя запись с канала "Россия К"


Сэмпл: http://multi-up.com/1216550
Рекламы нет!
Качество видео: SATRip
Формат файла: AVI
Видео: XviD, 720x544 (4:3), 1815 kbps, 25.000 fps, 0.185 bit/pixel
Аудио: Русский АC3, 48000 Гц, 2ch, 192 kbps
Формат файла субтитров: softsub (SRT) - внешние

MediaInfo

ОбщееПолное имя : D:\Попутчик.1986.SATRip-ylnian\Попутчик.1986.SATRip-ylnian.aviФормат файла : AVIФормат файла/Информация : Audio Video InterleaveРазмер файла : 1,09 ГбайтПродолжительность : 1 ч. 17 м.Общий поток : 2017 Кбит/секПрограмма кодирования : VirtualDubMod 1.5.10.3 | www.virtualdub-fr.org || (build 2550/release)Библиотека кодирования : VirtualDubMod build 2550/release
ВидеоИдентификатор : 0Формат файла : MPEG-4 VisualПрофиль формата : Advanced Simple@L5Настройки формата : BVOP1 / Custom MatrixПараметр BVOP формата : 1Параметр QPel формата : НетПараметр GMC формата : Без точки переходаПараметр матрицы формата : ВыборочнаяИдентификатор кодека : XVIDИдентификатор кодека/Подсказка : XviDПродолжительность : 1 ч. 17 м.Битрейт : 1815 Кбит/секШирина : 720 пикселейВысота : 544 пикселяСоотношение сторон : 4:3Частота кадров : 25,000 кадров/секЦветовое пространство : YUVСубдискретизация насыщенности : 4:2:0Битовая глубина : 8 битТип развёртки : ПрогрессивнаяМетод сжатия : С потерямиБит/(Пиксели*Кадры) : 0.185Размер потока : 1001 Мбайт (90%)Библиотека кодирования : XviD 67
АудиоИдентификатор : 1Формат файла : AC-3Формат файла/Информация : Audio Coding 3Коммерческое название : Dolby DigitalИдентификатор кодека : 2000Продолжительность : 1 ч. 17 м.Вид битрейта : ПостоянныйБитрейт : 192 Кбит/секКаналы : 2 каналаChannel layout : L RЧастота : 48,0 КГцЧастота кадров : 31,250 кадров/сек (1536 SPF)Битовая глубина : 16 битМетод сжатия : С потерямиРазмер потока : 106 Мбайт (10%)Выравнивание : Разделение по промежуткамПродолжительность промежутка : 40 мс. (1,00 видеокадр)Время предзагрузки промежутка : 500 мс.ServiceKind/String : Complete Main
ОбщееПолное имя : D:\Попутчик.1986.SATRip-ylnian\Попутчик.1986.SATRip-ylnian_rus.srtРазмер файла : 79,0 Кбайт

Источник: Torrentc

Источник: Torrentc с SATRip by iriston - - у меня полнее кадр, нет сбоев записи видеосигнала (№2), нет посторонних надписей (№1), выше чёткость изображения


[torrentc.info]_t_5653968.torrent
Торрент: Зарегистрирован ·  [ 2018-12-07 01:52 ] ·  722199d2d18bcb14cb4e27892771d3386f399cb2

11 KB

Статус: проверено
Скачан: 0 раз
Размер: 1.09 GB
Оценка: 
(Голосов: 0)
Сказали спасибо: 0  Спасибо
Похожие темы
[Профиль]    [ЛС]
Показать сообщения:    
Ответить на тему

Текущее время: Сегодня 12:55

Часовой пояс: GMT + 7



Вы не можете начинать темы
Вы не можете отвечать на сообщения
Вы не можете редактировать свои сообщения
Вы не можете удалять свои сообщения
Вы не можете голосовать в опросах
Вы не можете прикреплять файлы к сообщениям
Вы можете скачивать файлы