Без срока давности (Эдгар Ходжикян) [1986, шпионский детектив, SATRip-AVC]

Ответить на тему
Статистика раздачи [Обновить пиров]
Размер:  1.36 GB   |    Зарегистрирован:  9 дней   |    Скачан:  0 раз

Полного источника не было: Никогда

 
   
 
 
 
Автор Сообщение

torrentc.info

Создавать темы 07-Дек-2018 01:52

[Цитировать]

Без срока давности- Жанр: шпионский детектив
Год выхода: 1986
Продолжительность: 01:27:28-Режиссёр: Эдгар Ходжикян-В ролях:
Борис Щербаков, Пётр Глебов, Всеволод Сафонов, Людмила Нильская, Сергей Приселков, Всеволод Шиловский, Иван Шабалтас, Ирина Феофанова, Наталья Стриженова, Всеволод Ларионов, Рубен Симонов, Валерий Гатаев, Улдис Лиелдидж, Юрий Гусев, Паул Буткевич, Тыну Луме, Виктор Шульгин, Юрий Саранцев, Эрнст Романов, Вадим Захарченко, Эрменгельд Коновалов, Маргарита Гладунко, Анатолий Голик, Валерий Головненков, Арчил Гомиашвили, Виталий Деркач, Михаил Жарковский, Леонид Зверинцев, Сергей Зинченко, Владимир Мащенко, Ибрагим Барги, Людмила Купина, Виктор Мамаев, Михаил Розанов, Ольга Степанова, Наталья Тихонова, Георгий Шахет, Александр Шворин, Артем Карапетян
Описание:
О разоблачении органами госбезопасности группы бывших фашистских агентов.-Источник: Torrentc | Сэмпл | Кинопоиск-Качество видео: SATRip-AVC, спасибо трус за Источник: Torrentc.
Формат файла: MKV
Видео: x264 (High@L4.1); 716@763x556, Display aspect ratio 1.372:1, 25.000 fps, 2024 Kbps
Аудио: AC-3; 16 bits 48 Khz; 2.0 ch 192 Kbps; CBR

MediaInfox264 log

avs [info]: 716x556p 16:15 @ 25/1 fps (cfr)
x264 [info]: using SAR=16/15
x264 [info]: using cpu capabilities: MMX2 SSE2Fast SSSE3 SSE4.2
x264 [info]: profile High, level 4.1
x264 [info]: frame I:807 Avg QP:17.23 size: 53158
x264 [info]: frame P:25552 Avg QP:19.75 size: 21616
x264 [info]: frame B:104844 Avg QP:22.14 size: 6988
x264 [info]: consecutive B-frames: 0.9% 0.8% 5.5% 14.8% 15.4% 53.6% 5.7% 1.9% 1.1% 0.3%
x264 [info]: mb I I16..4: 11.8% 72.3% 15.9%
x264 [info]: mb P I16..4: 0.1% 8.2% 0.9% P16..4: 31.2% 39.9% 16.9% 1.7% 0.1% skip: 1.0%
x264 [info]: mb B I16..4: 0.0% 0.5% 0.1% B16..8: 38.6% 23.8% 4.3% direct: 7.0% skip:25.7% L0:42.9% L1:43.0% BI:14.1%
x264 [info]: 8x8 transform intra:85.6% inter:63.3%
x264 [info]: direct mvs spatial:100.0% temporal:0.0%
x264 [info]: coded y,uvDC,uvAC intra: 98.1% 72.2% 39.4% inter: 32.3% 16.3% 0.6%
x264 [info]: i16 v,h,dc,p: 12% 6% 39% 43%
x264 [info]: i8 v,h,dc,ddl,ddr,vr,hd,vl,hu: 10% 9% 9% 9% 13% 13% 12% 12% 13%
x264 [info]: i4 v,h,dc,ddl,ddr,vr,hd,vl,hu: 15% 9% 2% 8% 14% 15% 13% 12% 12%
x264 [info]: i8c dc,h,v,p: 32% 31% 22% 15%
x264 [info]: Weighted P-Frames: Y:14.9% UV:3.7%
x264 [info]: ref P L0: 35.3% 10.4% 16.7% 6.6% 6.4% 4.3% 4.6% 2.2% 2.5% 1.8% 2.1% 1.5% 1.7% 1.3% 1.5% 0.9%
x264 [info]: ref B L0: 70.8% 10.2% 4.9% 2.9% 2.1% 2.0% 1.6% 1.1% 0.9% 0.9% 0.7% 0.7% 0.6% 0.4% 0.2%
x264 [info]: ref B L1: 95.5% 4.5%
x264 [info]: kb/s:2024.16
-General
Unique ID : 221604504707050911921818055578426052084 (0xA6B779A2F2B8AD929362B0E37AC08DF4)
Complete name : Без срока давности.1986.mkv
Format : Matroska
Format version : Version 2
File size : 1.36 GiB
Duration : 1 h 27 min
Overall bit rate : 2 218 kb/s
Encoded date : UTC 2017-04-18 13:45:18
Writing application : mkvmerge v7.8.0 ('River Man') 32bit built on Mar 27 2015 16:18:02
Writing library : libebml v1.3.1 + libmatroska v1.4.2
Video
ID : 1
Format : AVC
Format/Info : Advanced Video Codec
Format profile : High@L4.1
Format settings : CABAC / 16 Ref Frames
Format settings, CABAC : Yes
Format settings, ReFrames : 16 frames
Codec ID : V_MPEG4/ISO/AVC
Duration : 1 h 27 min
Bit rate : 1 982 kb/s
Width : 716 pixels
Height : 556 pixels
Display aspect ratio : 1.372
Original display aspect rat : 1.374
Frame rate mode : Constant
Frame rate : 25.000 FPS
Color space : YUV
Chroma subsampling : 4:2:0
Bit depth : 8 bits
Scan type : Progressive
Bits/(Pixel*Frame) : 0.199
Stream size : 1.21 GiB (89%)
Title : Без срока давности.1986
Writing library : x264 core 148 r2721kMod 72d53ab
Encoding settings : cabac=1 / ref=16 / deblock=1:-1:-1 / analyse=0x3:0x133 / me=umh / subme=11 / psy=1 / fade_compensate=0.00 / psy_rd=1.10:0.10 / mixed_ref=1 / me_range=32 / chroma_me=1 / trellis=2 / 8x8dct=1 / cqm=0 / deadzone=21,11 / fast_pskip=1 / chroma_qp_offset=-3 / threads=12 / lookahead_threads=2 / sliced_threads=0 / nr=0 / decimate=1 / interlaced=0 / bluray_compat=0 / constrained_intra=0 / fgo=0 / bframes=9 / b_pyramid=2 / b_adapt=2 / b_bias=0 / direct=3 / weightb=1 / open_gop=0 / weightp=2 / keyint=250 / keyint_min=25 / scenecut=40 / intra_refresh=0 / rc_lookahead=60 / rc=crf / mbtree=0 / crf=18.0000 / qcomp=0.65 / qpmin=0 / qpmax=69 / qpstep=4 / vbv_maxrate=62500 / vbv_bufsize=78125 / crf_max=0.0 / nal_hrd=none / filler=0 / ip_ratio=1.40 / pb_ratio=1.30 / aq=1:0.90
Language : Russian
Default : Yes
Forced : No
Color range : Limited
Color primaries : BT.601 PAL
Transfer characteristics : BT.470 System B, BT.470 System G
Matrix coefficients : BT.470 System B, BT.470 System G
Audio
ID : 2
Format : AC-3
Format/Info : Audio Coding 3
Codec ID : A_AC3
Duration : 1 h 27 min
Bit rate mode : Constant
Bit rate : 192 kb/s
Channel(s) : 2 channels
Channel positions : Front: L R
Sampling rate : 48.0 kHz
Frame rate : 31.250 FPS (1536 SPF)
Bit depth : 16 bits
Compression mode : Lossy
Stream size : 120 MiB (9%)
Language : Russian
Service kind : Complete Main
Default : Yes
Forced : No


[torrentc.info]_t_5654542.torrent
Торрент: Зарегистрирован ·  [ 2018-12-07 01:52 ] ·  599e417e74c1e6144697a70715c35b70fdfb2091

14 KB

Статус: проверено
Скачан: 0 раз
Размер: 1.36 GB
Оценка: 
(Голосов: 0)
Сказали спасибо: 0  Спасибо
Похожие темы
[Профиль]    [ЛС]
Показать сообщения:    
Ответить на тему

Текущее время: Сегодня 12:59

Часовой пояс: GMT + 7



Вы не можете начинать темы
Вы не можете отвечать на сообщения
Вы не можете редактировать свои сообщения
Вы не можете удалять свои сообщения
Вы не можете голосовать в опросах
Вы не можете прикреплять файлы к сообщениям
Вы можете скачивать файлы