Дом напротив (Аян Шахмалиева) [1958, киноповесть, короткометражный, SATRip-AVC]

Ответить на тему
Статистика раздачи [Обновить пиров]
Размер:  179 MB   |    Зарегистрирован:  9 дней   |    Скачан:  0 раз

Полного источника не было: Никогда

 
   
 
 
 
Автор Сообщение

torrentc.info

Создавать темы 07-Дек-2018 01:52

[Цитировать]

Дом напротив
[img=right]https://c.radikal.ru/c29/1812/41/e0ee928159e1.jpg[/img]
Жанр: киноповесть, короткометражный
Год выхода: 1958
Продолжительность: 00:29:07
Режиссёр: Аян Шахмалиева
В ролях: Глеб Селянин, Галина Дунаева, Людмила Касьянова, Степан Крылов, Георгий Унанян, Александр Орлов, Ольга Аверичева
Описание: Телефильм. Шофер Вася, лежащий в больнице с тяжелыми переломами, не верит в возможность выздоровления. Он отказывается от лекарств, грубит медсестре Алевтине Валерьяновне. Особую тоску наводит на него полуразвалившийся дом напротив.
Доп. информация: Источник: Torrentc http://Torrentc/forum/viewtopic.php?t=4660383
Семпл: https://www.sendspace.com/file/hqcjt9
Качество видео: SATRip
Формат файла: MKV
Видео: 720х528 (4/3), 4:2:0, 25.00 fps, AVC ~808 Kbps avg, ~0.085/pixel
Аудио: 48.0 kHz, HE-AACv2 , 2/0 (L,R) ch, ~48.00 kbps

MediaInfo

Дом напротив (СССР.1958) SATrip.короткометражный.mkv
Формат файла : Matroska
Версия формата : Version 4 / Version 2
Размер файла : 179 Мбайт
Продолжительность : 29 м. 7 с.
Общий поток : 858 Кбит/сек
Дата кодирования : UTC 2018-12-06 11:37:59
Программа кодирования : mkvmerge v25.0.0 ('Prog Noir') 64-bit
Библиотека кодирования : libebml v1.3.6 + libmatroska v1.4.9
Видео
Идентификатор : 1
Формат файла : AVC
Формат файла/Информация : Advanced Video Codec
Профиль формата : High@L4.1
Параметр CABAC формата : Да
Параметр ReFrames формата : 16 кадров
Идентификатор кодека : V_MPEG4/ISO/AVC
Продолжительность : 29 м. 7 с.
Битрейт : 808 Кбит/сек
Ширина : 720 пикселей
Высота : 528 пикселей
Соотношение сторон : 4:3
Режим частоты кадров : Постоянный
Частота кадров : 25,000 кадров/сек
Цветовое пространство : YUV
Субдискретизация насыщенности : 4:2:0
Битовая глубина : 8 бит
Тип развёртки : Прогрессивная
Бит/(Пиксели*Кадры) : 0.085
Размер потока : 168 Мбайт (94%)
Библиотека кодирования : x264 core 155 r2901 7d0ff22
Настройки программы : cabac=1 / ref=16 / deblock=1:-3:-3 / analyse=0x3:0x133 / me=umh / subme=10 / psy=1 / psy_rd=1.05:0.10 / mixed_ref=1 / me_range=32 / chroma_me=1 / trellis=2 / 8x8dct=1 / cqm=0 / deadzone=21,11 / fast_pskip=0 / chroma_qp_offset=-3 / threads=12 / lookahead_threads=3 / sliced_threads=0 / nr=0 / decimate=0 / interlaced=0 / bluray_compat=0 / constrained_intra=0 / bframes=14 / b_pyramid=2 / b_adapt=2 / b_bias=0 / direct=3 / weightb=1 / open_gop=0 / weightp=2 / keyint=250 / keyint_min=25 / scenecut=40 / intra_refresh=0 / rc_lookahead=60 / rc=2pass / mbtree=1 / bitrate=808 / ratetol=1.0 / qcomp=0.80 / qpmin=0 / qpmax=69 / qpstep=4 / cplxblur=20.0 / qblur=0.5 / vbv_maxrate=62500 / vbv_bufsize=78125 / nal_hrd=none / filler=0 / ip_ratio=1.40 / aq=1:1.00
Default : Да
Forced : Нет
Аудио
Идентификатор : 2
Формат файла : AAC
Формат файла/Информация : Advanced Audio Codec
Профиль формата : HE-AACv2 / HE-AAC / LC
Идентификатор кодека : A_AAC
Продолжительность : 29 м. 7 с.
Битрейт : 48,0 Кбит/сек
Каналы : 2 канала / 1 канал / 1 канал
Расположение каналов : Front: L R / Front: C / Front: C
Частота : 48,0 КГц / 48,0 КГц / 24,0 КГц
Частота кадров : 23,438 кадра/сек (1024 spf)
Метод сжатия : С потерями
Задержка видео : 47 мс.
Размер потока : 10,00 Мбайт (6%)
Default : Да
Forced : Нет


[torrentc.info]_t_5655527.torrent
Торрент: Зарегистрирован ·  [ 2018-12-07 01:52 ] ·  27a2aef0191e472955e078ea5af2a1f1ef07be50

14 KB

Статус: проверено
Скачан: 0 раз
Размер: 179 MB
Оценка: 
(Голосов: 0)
Сказали спасибо: 0  Спасибо
Похожие темы
[Профиль]    [ЛС]
Показать сообщения:    
Ответить на тему

Текущее время: Сегодня 13:03

Часовой пояс: GMT + 7



Вы не можете начинать темы
Вы не можете отвечать на сообщения
Вы не можете редактировать свои сообщения
Вы не можете удалять свои сообщения
Вы не можете голосовать в опросах
Вы не можете прикреплять файлы к сообщениям
Вы можете скачивать файлы