БАгИ (Андрей Богатырев) [2010, драма, семейный, WEB-DLRip]

Ответить на тему
Статистика раздачи [Обновить пиров]
Размер:  1.46 GB   |    Зарегистрирован:  9 дней   |    Скачан:  0 раз

Полного источника не было: Никогда

 
   
 
 
 
Автор Сообщение

torrentc.info

Создавать темы 07-Дек-2018 01:52

[Цитировать]

БАгИ
[img=right]https://i108.fastpic.ru/big/2018/1203/b3/0e1acf1543...5a71b3.jpg[/img]
Жанр: драма, семейный
Год выхода: 2010
Продолжительность: 01:56:21
Режиссёр: Андрей Богатырев
В ролях: Евгений Карельских, Алексей Боченин, Сергей Фетисов, Павел Абраменков, Елена Бирюкова, Ольга Аксёнова, Любовь Корнева, Александр Шпагин, Юрий Кузьменков, Николай Козак
Описание: Что-то нарушилось в системе нашей жизни, что-то пошло не так…
Их двое. Одному — 23, другому 68. Они не знают друг друга. От каждого из них зависит жизнь человека. Для ее спасения им необходимо достать огромную сумму денег. Это ситуация объединят их в трагических обстоятельствах.

Кинопоиск
Sample
Качество видео: WEB-DLRip
Формат файла: AVI
Видео: 720x400 (1.80:1), 24.000 fps, XviD build 73 ~1597 kbps avg, 0.23 bit/pixel
Аудио: 48 kHz, AC3 Dolby Digital, 2/0 (L,R) ch, ~192 kbps

MediaInfo

General
Complete name : D:\Баги 2010 WEB-DLRip.avi
Format : AVI
Format/Info : Audio Video Interleave
File size : 1.46 GiB
Duration : 1 h 56 min
Overall bit rate : 1 799 kb/s
Writing application : VirtualDubMod 1.5.10.3 | www.virtualdub-fr.org || (build 2550/release)
Writing library : VirtualDubMod build 2550/release
Video
ID : 0
Format : MPEG-4 Visual
Format profile : Advanced Simple@L5
Format settings : BVOP1
Format settings, BVOP : 1
Format settings, QPel : No
Format settings, GMC : No warppoints
Format settings, Matrix : Default (MPEG)
Codec ID : XVID
Codec ID/Hint : XviD
Duration : 1 h 56 min
Bit rate : 1 598 kb/s
Width : 720 pixels
Height : 400 pixels
Display aspect ratio : 16:9
Frame rate : 24.000 FPS
Color space : YUV
Chroma subsampling : 4:2:0
Bit depth : 8 bits
Scan type : Progressive
Compression mode : Lossy
Bits/(Pixel*Frame) : 0.231
Stream size : 1.30 GiB (89%)
Writing library : XviD 73
Audio
ID : 1
Format : AC-3
Format/Info : Audio Coding 3
Codec ID : 2000
Duration : 1 h 56 min
Bit rate mode : Constant
Bit rate : 192 kb/s
Channel(s) : 2 channels
Channel positions : Front: L R
Sampling rate : 48.0 kHz
Frame rate : 31.250 FPS (1536 SPF)
Bit depth : 16 bits
Compression mode : Lossy
Stream size : 160 MiB (11%)
Alignment : Split accross interleaves
Interleave, duration : 42 ms (1.00 video frame)
Interleave, preload duratio : 500 ms
Service kind : Complete Main


[torrentc.info]_t_5653892.torrent
Торрент: Зарегистрирован ·  [ 2018-12-07 01:52 ] ·  98fa5d19ced6fb1e5e58eca335a579bb46d48d89

15 KB

Статус: проверено
Скачан: 0 раз
Размер: 1.46 GB
Оценка: 
(Голосов: 0)
Сказали спасибо: 0  Спасибо
Похожие темы
[Профиль]    [ЛС]
Показать сообщения:    
Ответить на тему

Текущее время: Сегодня 13:28

Часовой пояс: GMT + 7



Вы не можете начинать темы
Вы не можете отвечать на сообщения
Вы не можете редактировать свои сообщения
Вы не можете удалять свои сообщения
Вы не можете голосовать в опросах
Вы не можете прикреплять файлы к сообщениям
Вы можете скачивать файлы