Любовь и Сакс (Алла Сурикова) [2017, мелодрама, SATRip]

Ответить на тему
Статистика раздачи [Обновить пиров]
Размер:  1.33 GB   |    Зарегистрирован:  9 дней   |    Скачан:  0 раз

Полного источника не было: Никогда

 
   
 
 
 
Автор Сообщение

torrentc.info

Создавать темы 07-Дек-2018 01:52

[Цитировать]

Любовь и Сакс
[img=right]https://i107.fastpic.ru/big/2018/1206/ac/58a1749181...4dd2ac.jpg[/img]
Жанр: мелодрама
Год выхода: 2017
Продолжительность: 01:26:44
Режиссёр: Алла Сурикова
В ролях: Максим Аверин, Екатерина Климова, Александр Скляр, Сергей Газаров, Михаил Ефремов, Лариса Долина, Ольга Прокофьева, Ольга Кабо, Валерий Баринов, Даниил Белых, Андрей Носков, Женя Абдулова, Анна Ардова
Описание: Сева и Люба – муж и жена. Он – джазовый музыкант, и он не приносит в дом ни копейки. Она арфистка в симфоническом оркестре, и она ведёт хозяйство и воспитывает их дочь. В какой-то момент они оказываются на грани развода, которого никто из них, на самом деле, не хочет.
Кинопоиск
Sample
Качество видео: SATRip
Формат файла: AVI
Видео: 720x400 (1.80:1), 25 fps, XviD, ~1994 kbps avg, 0.28 bit/pixel
Аудио: 48 kHz, MPEG Layer 3, 2 ch, ~192.00 kbps avg

MediaInfo

General
Complete name : D:\lyubov.i.Saks.2017.XviD.SATRip.25Kuzmich.avi
Format : AVI
Format/Info : Audio Video Interleave
File size : 1.33 GiB
Duration : 1 h 26 min
Overall bit rate : 2 197 kb/s
Writing application : VirtualDubMod 1.5.10.3 | www.virtualdub-fr.org || (build 2550/release)
Writing library : VirtualDubMod build 2550/release
Video
ID : 0
Format : MPEG-4 Visual
Format profile : Advanced Simple@L5
Format settings : BVOP1
Format settings, BVOP : 1
Format settings, QPel : No
Format settings, GMC : No warppoints
Format settings, Matrix : Default (MPEG)
Codec ID : XVID
Codec ID/Hint : XviD
Duration : 1 h 26 min
Bit rate : 1 995 kb/s
Width : 720 pixels
Height : 400 pixels
Display aspect ratio : 16:9
Frame rate : 25.000 FPS
Color space : YUV
Chroma subsampling : 4:2:0
Bit depth : 8 bits
Scan type : Progressive
Compression mode : Lossy
Bits/(Pixel*Frame) : 0.277
Stream size : 1.21 GiB (91%)
Writing library : XviD 1.2.1 (UTC 2008-12-04)
Audio
ID : 1
Format : MPEG Audio
Format version : Version 1
Format profile : Layer 3
Format settings : Joint stereo / MS Stereo
Codec ID : 55
Codec ID/Hint : MP3
Duration : 1 h 26 min
Bit rate mode : Constant
Bit rate : 192 kb/s
Channel(s) : 2 channels
Sampling rate : 48.0 kHz
Frame rate : 41.667 FPS (1152 SPF)
Compression mode : Lossy
Stream size : 119 MiB (9%)
Alignment : Aligned on interleaves
Interleave, duration : 40 ms (1.00 video frame)
Interleave, preload duratio : 504 ms
Writing library : LAME3.99r
Encoding settings : -m j -V 4 -q 2 -lowpass 18.6 -b 192


[torrentc.info]_t_5655280.torrent
Торрент: Зарегистрирован ·  [ 2018-12-07 01:52 ] ·  2f8d3f787fdb6b6a0f5d8e2c0b563a118ecaca40

14 KB

Статус: проверено
Скачан: 0 раз
Размер: 1.33 GB
Оценка: 
(Голосов: 0)
Сказали спасибо: 0  Спасибо
Похожие темы
[Профиль]    [ЛС]
Показать сообщения:    
Ответить на тему

Текущее время: Сегодня 13:40

Часовой пояс: GMT + 7



Вы не можете начинать темы
Вы не можете отвечать на сообщения
Вы не можете редактировать свои сообщения
Вы не можете удалять свои сообщения
Вы не можете голосовать в опросах
Вы не можете прикреплять файлы к сообщениям
Вы можете скачивать файлы