Подбросы (Иван И. Твердовский) [2018, драма, WEB-DLRip]

Ответить на тему
Статистика раздачи [Обновить пиров]
Размер:  1.46 GB   |    Зарегистрирован:  9 дней   |    Скачан:  0 раз

Полного источника не было: Никогда

 
   
 
 
 
Автор Сообщение

torrentc.info

Создавать темы 07-Дек-2018 01:52

[Цитировать]

Подбросы
[img=right]https://i108.fastpic.ru/big/2018/1206/85/8428b27689...6c4685.jpg[/img]
Жанр: драма
Год выхода: 2018
Продолжительность: 01:26:45
Режиссёр: Иван И. Твердовский
В ролях: Денис Власенко, Анна Слю, Данил Стеклов, Павел Чинарёв, Вильма Кутавичюте, Александра Урсуляк, Максим Виторган, Александр Золотовицкий, Данила Ариков, Елена Коробанова
Описание: Брошенный в младенчестве, Денис вырос и превратился в юношу с уникальной способностью не чувствовать боли. Внезапно жизнь молодого человека кардинально меняется: его находит мать и увозит жить в Москву. Она окружает Дениса заботой, вниманием, играет роль задушевной подружки и вводит юношу в загадочную среду столичных мошенников и коррупционеров. Ради материнской любви доверчивый паренек готов стать участником рискованной авантюры «сильных мира сего».
[img]https://rating.kinopoisk.ru/1049775.gif[/img]
Sample
Качество видео: WEB-DLRip
Формат файла: AVI
Видео: 720x304 (2.37:1), 24.000 fps, XviD build 73 ~2015 kbps avg, 0.38 bit/pixel
Аудио: 48 kHz, AC3 Dolby Digital, 3/2 (L,C,R,l,r) + LFE ch, ~384 kbps

MediaInfo

General
Complete name : D:\Подбросы 2018 WEB-DLRip.avi
Format : AVI
Format/Info : Audio Video Interleave
File size : 1.46 GiB
Duration : 1 h 26 min
Overall bit rate : 2 409 kb/s
Writing application : VirtualDubMod 1.5.10.3 | www.virtualdub-fr.org || (build 2550/release)
Writing library : VirtualDubMod build 2550/release
Video
ID : 0
Format : MPEG-4 Visual
Format profile : Advanced Simple@L5
Format settings : BVOP1
Format settings, BVOP : 1
Format settings, QPel : No
Format settings, GMC : No warppoints
Format settings, Matrix : Default (MPEG)
Codec ID : XVID
Codec ID/Hint : XviD
Duration : 1 h 26 min
Bit rate : 2 016 kb/s
Width : 720 pixels
Height : 304 pixels
Display aspect ratio : 2.35:1
Frame rate : 24.000 FPS
Color space : YUV
Chroma subsampling : 4:2:0
Bit depth : 8 bits
Scan type : Progressive
Compression mode : Lossy
Bits/(Pixel*Frame) : 0.384
Stream size : 1.22 GiB (84%)
Writing library : XviD 73
Audio
ID : 1
Format : AC-3
Format/Info : Audio Coding 3
Codec ID : 2000
Duration : 1 h 26 min
Bit rate mode : Constant
Bit rate : 384 kb/s
Channel(s) : 6 channels
Channel positions : Front: L C R, Side: L R, LFE
Sampling rate : 48.0 kHz
Frame rate : 31.250 FPS (1536 SPF)
Bit depth : 16 bits
Compression mode : Lossy
Stream size : 238 MiB (16%)
Alignment : Split accross interleaves
Interleave, duration : 42 ms (1.00 video frame)
Interleave, preload duratio : 500 ms
Service kind : Complete Main
Торрент перезалит.
Замена на рип с WEB-DL c Itunes со звуком 5.1.


[torrentc.info]_t_5655277.torrent
Торрент: Зарегистрирован ·  [ 2018-12-07 01:52 ] ·  87f2e25ffa1e834b16dd81090613c7bcba455fc6

15 KB

Статус: проверено
Скачан: 0 раз
Размер: 1.46 GB
Оценка: 
(Голосов: 0)
Сказали спасибо: 0  Спасибо
Похожие темы
[Профиль]    [ЛС]
Показать сообщения:    
Ответить на тему

Текущее время: Сегодня 12:52

Часовой пояс: GMT + 7



Вы не можете начинать темы
Вы не можете отвечать на сообщения
Вы не можете редактировать свои сообщения
Вы не можете удалять свои сообщения
Вы не можете голосовать в опросах
Вы не можете прикреплять файлы к сообщениям
Вы можете скачивать файлы