Оцепеневшие от страха / Aterrados (Демиан Рунья / Demián Rugna) [2018, Аргентина, ужасы, WEB-DLRip] Dub (iTunes)

Ответить на тему
 
Автор Сообщение

torrentc.info

Создавать темы 07-Дек-2018 00:49

[Цитировать]

Оцепеневшие от страха / Aterrados
[img=right]https://i5.imageban.ru/out/2018/12/06/a27a311e31c91...b9fd1e.png[/img]
Страна: Аргентина
Жанр: ужасы
Год выхода: 2018
Продолжительность: 01:27:41-Перевод: Профессиональный (дублированный) | iTunes
Субтитры: нет
Оригинальная аудиодорожка: нет-Режиссер: Демиан Рунья / Demián Rugna-В ролях: Максимилиано Гионе, Норберто Гонсало, Эльвира Онетто, Агустин Риттано, Демиан Саломон, Джордж Л. Льюис, Джульета Валлина, Арьель Чаваррия, Уго Албрич, Наталия Сеньоралес-Описание: Леденящие душу жуткие события сотрясают пригородное местечко, где соседствуют три уютных домика. Неведомая и невидимая сила зверски убивает женщину на глазах мужа. Ночью у кровати его соседа появляется ужасный монстр. А мальчик из дома напротив, погибший под колесами автомобиля, возвращается с кладбища и садится за кухонный стол. Искать причину необъяснимых кошмаров берутся три специалиста по паранормальным явлениям и детектив из отдела по расследованию убийств.-[img]https://rating.kinopoisk.ru/1068448.gif[/img]-Качество видео: WEB-DLRip
Формат файла: AVI
Видео: 720x320 (2.25:1), 24.005 fps, XviD build 73 ~1986 kbps avg, 0.36 bit/pixel
Аудио: 48 kHz, AC3 Dolby Digital, 3/2 (L,C,R,l,r) + LFE ch, ~384 kbps-

Сэмпл-

MediaInfo

Формат файла                                   : AVI
Формат файла/Информация                        : Audio Video Interleave
Профиль формата                          : OpenDML
Размер файла                             : 1,46 Гбайт
Продолжительность                        : 1 ч. 27 м.
Общий поток                              : 2377 Кбит/сек
Программа кодирования                    : XviD4PSP 6.0 / 54.27.101
Видео
Идентификатор                            : 0
Формат файла                                   : MPEG-4 Visual
Профиль формата                          : Advanced Simple@L5
Настройки формата                        : BVOP2 / Custom Matrix
Параметр BVOP формата                    : 2
Параметр QPel формата                    : Нет
Параметр GMC формата                     : Без точки перехода
Параметр матрицы формата                 : Выборочная
Идентификатор кодека                     : XVID
Идентификатор кодека/Подсказка           : XviD
Продолжительность                        : 1 ч. 27 м.
Битрейт                                  : 1982 Кбит/сек
Ширина                                   : 720 пикселей
Высота                                   : 320 пикселей
Соотношение сторон                       : 2,25:1
Частота кадров                           : 24,000 кадра/сек
Цветовое пространство                    : YUV
Субдискретизация насыщенности            : 4:2:0
Битовая глубина                          : 8 бит
Тип развёртки                            : Прогрессивная
Метод сжатия                             : С потерями
Бит/(Пиксели*Кадры)                      : 0.358
Размер потока                            : 1,21 Гбайт (83%)
Библиотека кодирования                   : XviD 73
Аудио
Идентификатор                            : 1
Формат файла                                   : AC-3
Формат файла/Информация                        : Audio Coding 3
Коммерческое название                    : Dolby Digital
Идентификатор кодека                     : 2000
Продолжительность                        : 1 ч. 27 м.
Вид битрейта                             : Постоянный
Битрейт                                  : 384 Кбит/сек
Каналы                                   : 6 каналов
Channel layout                           : L R C LFE Ls Rs
Частота                                  : 48,0 КГц
Частота кадров                           : 31,250 кадров/сек (1536 SPF)
Битовая глубина                          : 16 бит
Метод сжатия                             : С потерями
Размер потока                            : 241 Мбайт (16%)
Выравнивание                             : Соединение по промежуткам
Продолжительность промежутка             : 32  мс. (0,77 видеокадр)
ServiceKind/String                       : Complete Main
[Профиль]    [ЛС]
Показать сообщения:    
Ответить на тему

Текущее время: Сегодня 12:53

Часовой пояс: GMT + 7



Вы не можете начинать темы
Вы не можете отвечать на сообщения
Вы не можете редактировать свои сообщения
Вы не можете удалять свои сообщения
Вы не можете голосовать в опросах
Вы не можете прикреплять файлы к сообщениям
Вы не можете скачивать файлы