Тихое место / A Quiet Place (Джон Красински / John Krasinski) [2018, США, ужасы, фантастика, триллер, драма, BDRip] AVO (Гаврилов)

Ответить на тему
 
Автор Сообщение

torrentc.info

Создавать темы 06-Дек-2018 23:42

[Цитировать]

Тихое место / A Quiet Place
«Тсссс! Если хочешь выжить - не издавай ни звука»
-[img=right]https://i2.imageban.ru/out/2018/12/06/b6543f7088290...15c501.png[/img]
Год выхода: 2018
Выпущено: США / Platinum Dunes
Жанр: ужасы, фантастика, триллер, драма
Продолжительность: 01:30:14
Перевод: Авторский (одноголосый закадровый) Андрей Гаврилов - Вся речь и язык жестов озвучены!
Субтитры: нет-Режиссер:
Джон Красински / John Krasinski-В ролях:
Эмили Блант (Evelyn Abbott), Джон Красински (Lee Abbott), Милли Симмондс (Regan Abbott), Ноа Джуп (Marcus Abbott), Кейд Вудворд (Beau Abbott), Леон Рассом (Man in the Woods), Дорис МакКарти (Woman in the Woods), Рода Пелл (Old Man's Dead Wife)-О фильме:
Семья с двумя детьми живёт на отдалённой ферме. Казалось бы, жизнь этих людей совершенно не отличается от жизни других таких семей, но они живут в месте, которое наполнено ужасными монстрами, реагирующими на любой звук. Семейство разучило целый комплекс специальных жестов, которые помогают им общаться друг с другом, не издавая ни единого звука. Кроме того, каждый из членов семьи должен очень тихо передвигаться, чтобы опасные существа их не услышали. Однако дом, где живут дети, не может быть самым тихим местом на земле.-
| | IMDB | КиноПоиск | Сэмпл |-Качество: BDRip [A.Quiet.Place.2018.BluRay.1080p.AVC.Atmos.TrueHD7.1-CHDBits]
Формат файла: AVI
Видео: 720x304 (2.37:1), 23.976 fps, XviD build 67 ~1854 kbps avg, 0.35 bit/pixel
Аудио: 48 kHz, AC3 Dolby Digital, 3/2 (L,C,R,l,r) + LFE ch, ~448.00 kbps avg-
[img]https://i2.imageban.ru/thumbs/2018.12.06/bf9d1fc5f845918c63c37c4f62e10744.jpg[/img]-[img]https://i2.imageban.ru/thumbs/2018.12.06/a874aa5e485e95719975387d82af3cf2.jpg[/img][img]https://i2.imageban.ru/thumbs/2018.12.06/16f7a5c264e0bb1a745680d479d6bcfe.jpg[/img][img]https://i4.imageban.ru/thumbs/2018.12.06/07423cb6002831ed637ebe4b16357929.jpg[/img][img]https://i6.imageban.ru/thumbs/2018.12.06/4e2f6b1cd47e38925b7e3bac44703706.jpg[/img]MediaInfo">

Скриншоты[img]https://i2.imageban.ru/thumbs/2018.12.06/bf9d1fc5f845918c63c37c4f62e10744.jpg[/img]-[img]https://i2.imageban.ru/thumbs/2018.12.06/a874aa5e485e95719975387d82af3cf2.jpg[/img][img]https://i2.imageban.ru/thumbs/2018.12.06/16f7a5c264e0bb1a745680d479d6bcfe.jpg[/img][img]https://i4.imageban.ru/thumbs/2018.12.06/07423cb6002831ed637ebe4b16357929.jpg[/img][img]https://i6.imageban.ru/thumbs/2018.12.06/4e2f6b1cd47e38925b7e3bac44703706.jpg[/img]MediaInfo

Общее
Полное имя                               : D:\Tihoe_mesto_2018_BDRip_AVO_by_Dalemake.avi
Формат файла                                   : AVI
Формат файла/Информация                        : Audio Video Interleave
Размер файла                             : 1,46 Гбайт
Продолжительность                        : 1 ч. 30 м.
Общий поток                              : 2312 Кбит/сек
Программа кодирования                    : VirtualDubMod 1.5.10.3 | www.virtualdub-fr.org || (build 2550/release)
Библиотека кодирования                   : VirtualDubMod build 2550/release
Видео
Идентификатор                            : 0
Формат файла                                   : MPEG-4 Visual
Профиль формата                          : Advanced Simple@L5
Параметр BVOP формата                    : 1
Параметр QPel формата                    : Нет
Параметр GMC формата                     : Без точки перехода
Параметр матрицы формата                 : Выборочная
Идентификатор кодека                     : XVID
Идентификатор кодека/Подсказка           : XviD
Продолжительность                        : 1 ч. 30 м.
Битрейт                                  : 1855 Кбит/сек
Ширина                                   : 720 пикселей
Высота                                   : 304 пикселя
Соотношение сторон                       : 2,35:1
Частота кадров                           : 23,976 кадра/сек
Цветовое пространство                    : YUV
Субдискретизация насыщенности            : 4:2:0
Битовая глубина                          : 8 бит
Тип развёртки                            : Прогрессивная
Метод сжатия                             : С потерями
Бит/(Пиксели*Кадры)                      : 0.353
Размер потока                            : 1,17 Гбайт (80%)
Библиотека кодирования                   : XviD 67
Аудио
Идентификатор                            : 1
Формат файла                                   : AC-3
Формат файла/Информация                        : Audio Coding 3
Расширение режима                        : CM (complete main)
Параметр Endianness формата              : Big
Идентификатор кодека                     : 2000
Продолжительность                        : 1 ч. 30 м.
Вид битрейта                             : Постоянный
Битрейт                                  : 448 Кбит/сек
Каналы                                   : 6 каналов
Расположение каналов                     : Front: L C R, Side: L R, LFE
Частота                                  : 48,0 КГц
Метод сжатия                             : С потерями
Размер потока                            : 289 Мбайт (19%)
Выравнивание                             : Разделение по промежуткам
Продолжительность промежутка             : 42  мс. (1,00 видеокадр)
Время предзагрузки промежутка            : 500  мс.
-
[Профиль]    [ЛС]
Показать сообщения:    
Ответить на тему

Текущее время: Сегодня 12:54

Часовой пояс: GMT + 7



Вы не можете начинать темы
Вы не можете отвечать на сообщения
Вы не можете редактировать свои сообщения
Вы не можете удалять свои сообщения
Вы не можете голосовать в опросах
Вы не можете прикреплять файлы к сообщениям
Вы не можете скачивать файлы