Помешанный на времени / Time Freak (Эндрю Боулер / Andrew Bowler) [2018, фантастика, драма, мелодрама, комедия, WEB-DLRip] Dub (iTunes)

Ответить на тему
 
Автор Сообщение

torrentc.info

Создавать темы 06-Дек-2018 23:42

[Цитировать]

Помешанный на времени / Time Freak-[img=right]https://i1.imageban.ru/out/2018/12/06/fd4a7013457a3...5bb26e.png[/img]
Год выхода: 2018
Выпущено: США / Rhodes Entertainment
Жанр: фантастика, драма, мелодрама, комедия
Продолжительность: 01:44:49
Перевод: Профессиональный (полное дублирование)
Субтитры: нет-Режиссер:
Эндрю Боулер / Andrew Bowler-В ролях:
Эйса Баттерфилд, Софи Тернер, Скайлер Гизондо, Обри Рейнольдс, Джозеф Парк, Кэйден Дж. Грегор, Корал Чэмберс, Марк Блокович, Мэри Элизабет Бойлэн, Ками Кристиансен-О фильме:
Бросила девушка? Неужели уже ничего нельзя изменить? Можно! Студент-физик изобретает машину времени и отправляется в недалекое прошлое, чтобы исправить ошибки. В результате фатального сбоя главным действующим лицом этой любовной истории становится его лучший друг. С кем же останется девушка?-
| | IMDB | КиноПоиск | Сэмпл |-Качество: WEB-DLRip [TIME_FREAK_2018_WEB_DL_AMAZON_1080p-BLUEBIRD]
Формат файла: AVI
Видео: 720x384 (1.88:1), 23.976 fps, XviD build 67 ~1574 kbps avg, 0.24 bit/pixel
Аудио: 48 kHz, AC3 Dolby Digital, 3/2 (L,C,R,l,r) + LFE ch, ~384 kbps avg - iTunes Russia-
[img]https://i2.imageban.ru/thumbs/2018.12.06/67dbb99e24b600a2c482ebe34c3699c8.jpg[/img]-[img]https://i6.imageban.ru/thumbs/2018.12.06/a3d8703414a07c34dc0e9c0859c0e218.jpg[/img][img]https://i2.imageban.ru/thumbs/2018.12.06/1e662127627308c2e2596fab6cd73b79.jpg[/img][img]https://i6.imageban.ru/thumbs/2018.12.06/39e91133c8e310d87ff391da8298319b.jpg[/img][img]https://i1.imageban.ru/thumbs/2018.12.06/6a579417604a9d6c9e8cdb7de7691a5a.jpg[/img]MediaInfo">

Скриншоты[img]https://i2.imageban.ru/thumbs/2018.12.06/67dbb99e24b600a2c482ebe34c3699c8.jpg[/img]-[img]https://i6.imageban.ru/thumbs/2018.12.06/a3d8703414a07c34dc0e9c0859c0e218.jpg[/img][img]https://i2.imageban.ru/thumbs/2018.12.06/1e662127627308c2e2596fab6cd73b79.jpg[/img][img]https://i6.imageban.ru/thumbs/2018.12.06/39e91133c8e310d87ff391da8298319b.jpg[/img][img]https://i1.imageban.ru/thumbs/2018.12.06/6a579417604a9d6c9e8cdb7de7691a5a.jpg[/img]MediaInfo

Общее
Полное имя                               : D:\Pomeshannyi_na_vremeni_2018_WEB-DLRip_iT_by_Dalemake.avi
Формат файла                                   : AVI
Формат файла/Информация                        : Audio Video Interleave
Размер файла                             : 1,44 Гбайт
Продолжительность                        : 1 ч. 44 м.
Общий поток                              : 1968 Кбит/сек
Программа кодирования                    : VirtualDubMod 1.5.10.3 | www.virtualdub-fr.org || (build 2550/release)
Библиотека кодирования                   : VirtualDubMod build 2550/release
Видео
Идентификатор                            : 0
Формат файла                                   : MPEG-4 Visual
Профиль формата                          : Advanced Simple@L5
Параметр BVOP формата                    : 1
Параметр QPel формата                    : Нет
Параметр GMC формата                     : Без точки перехода
Параметр матрицы формата                 : Выборочная
Идентификатор кодека                     : XVID
Идентификатор кодека/Подсказка           : XviD
Продолжительность                        : 1 ч. 44 м.
Битрейт                                  : 1575 Кбит/сек
Ширина                                   : 720 пикселей
Высота                                   : 384 пикселя
Соотношение сторон                       : 1,85:1
Частота кадров                           : 23,976 кадра/сек
Цветовое пространство                    : YUV
Субдискретизация насыщенности            : 4:2:0
Битовая глубина                          : 8 бит
Тип развёртки                            : Прогрессивная
Метод сжатия                             : С потерями
Бит/(Пиксели*Кадры)                      : 0.238
Размер потока                            : 1,15 Гбайт (80%)
Библиотека кодирования                   : XviD 67
Аудио
Идентификатор                            : 1
Формат файла                                   : AC-3
Формат файла/Информация                        : Audio Coding 3
Расширение режима                        : CM (complete main)
Параметр Endianness формата              : Big
Идентификатор кодека                     : 2000
Продолжительность                        : 1 ч. 44 м.
Вид битрейта                             : Постоянный
Битрейт                                  : 384 Кбит/сек
Каналы                                   : 6 каналов
Расположение каналов                     : Front: L C R, Side: L R, LFE
Частота                                  : 48,0 КГц
Метод сжатия                             : С потерями
Размер потока                            : 288 Мбайт (20%)
Выравнивание                             : Разделение по промежуткам
Продолжительность промежутка             : 42  мс. (1,00 видеокадр)
Время предзагрузки промежутка            : 500  мс.
-
[Профиль]    [ЛС]
Показать сообщения:    
Ответить на тему

Текущее время: Сегодня 12:55

Часовой пояс: GMT + 7



Вы не можете начинать темы
Вы не можете отвечать на сообщения
Вы не можете редактировать свои сообщения
Вы не можете удалять свои сообщения
Вы не можете голосовать в опросах
Вы не можете прикреплять файлы к сообщениям
Вы не можете скачивать файлы