Лыжные гонки. Кубок мира 2018-2019. Лиллехаммер (Норвегия). Спринт. Свободный стиль / Eurosport 1 HD [30.11.2018, Лыжные гонки, HDTV/1080i, TS/H.264, RU/EN]

Ответить на тему
Статистика раздачи [Обновить пиров]
Размер:  6.24 GB   |    Зарегистрирован:  9 дней   |    Скачан:  0 раз

Полного источника не было: Никогда

 
   
 
 
 
Автор Сообщение

torrentc.info

Создавать темы 06-Дек-2018 21:15

[Цитировать]

Лыжные гонки. Кубок мира 2018-2019. Лиллехаммер (Норвегия)
Спринт. Свободный стиль
Вид спорта: Лыжные гонки
Комментарий: Профессиональный
Язык комментариев: Русский (Курдюков) / Английский-Описание: Лыжные гонки. Кубок мира 2018-2019. Лиллехаммер (Норвегия). Спринт. Свободный стиль.
Доп. информация: Трансляция началась с середины 3-го четвертьфинала у женщин.-Автор рипа: Злобный Санчез
Качество: HDTV
Формат файла: TS
Видео кодек: AVC
Аудио кодек: MP2
Видео: MPEG4 Video (H264) 1920x1080 (16:9) 25fps 9300kbps
Аудио: MPEG Audio 48000Hz stereo 192kbps

MediaInfo

GeneralID : 1 (0x1)Complete name : Y:\торрент\Лыжные гонки. Кубок мира 2018-2019. Лиллехаммер (Норвегия). Спринт. Свободный стиль. Злобный.tsFormat : MPEG-TSFile size : 6.24 GiBDuration : 1 h 27 minOverall bit rate mode : VariableOverall bit rate : 10.2 Mb/s
VideoID : 301 (0x12D)Menu ID : 26001 (0x6591)Format : AVCFormat/Info : Advanced Video CodecFormat profile : High@L4Format settings : CABAC / 4 Ref FramesFormat settings, CABAC : YesFormat settings, RefFrames : 4 framesFormat settings, GOP : M=4, N=28Codec ID : 27Duration : 1 h 27 minBit rate : 9 352 kb/sWidth : 1 920 pixelsHeight : 1 080 pixelsDisplay aspect ratio : 16:9Frame rate : 25.000 FPSStandard : ComponentColor space : YUVChroma subsampling : 4:2:0Bit depth : 8 bitsScan type : InterlacedScan type, store method : Separated fieldsScan order : Top Field FirstBits/(Pixel*Frame) : 0.180Stream size : 5.70 GiB (91%)Color range : LimitedColor primaries : BT.709Transfer characteristics : BT.709Matrix coefficients : BT.709
Audio #1ID : 401 (0x191)Menu ID : 26001 (0x6591)Format : MPEG AudioFormat version : Version 1Format profile : Layer 2Codec ID : 3Duration : 1 h 27 minBit rate mode : ConstantBit rate : 192 kb/sChannel(s) : 2 channelsSampling rate : 48.0 kHzFrame rate : 41.667 FPS (1152 SPF)Compression mode : LossyDelay relative to video : -40 msStream size : 120 MiB (2%)Language : Russian
Audio #2ID : 402 (0x192)Menu ID : 26001 (0x6591)Format : MPEG AudioFormat version : Version 1Format profile : Layer 2Codec ID : 3Duration : 1 h 27 minBit rate mode : ConstantBit rate : 192 kb/sChannel(s) : 2 channelsSampling rate : 48.0 kHzFrame rate : 41.667 FPS (1152 SPF)Compression mode : LossyDelay relative to video : -40 msStream size : 120 MiB (2%)Language : English

РезультатыРезультаты

Мужчины
1 PELLEGRINO Federico ITA
2 IVERSEN Emil NOR
3 HARVEY Alex CAN
Женщины
1 SUNDLING Jonna SWE
2 NILSSON Stina SWE
3 BJORNSEN Sadie USA


[torrentc.info]_t_5652320.torrent
Торрент: Зарегистрирован ·  [ 2018-12-06 21:14 ] ·  bdf37cbc61b98bf5c75a02cf325d11e878f2c0f1

32 KB

Статус: проверено
Скачан: 0 раз
Размер: 6.24 GB
Оценка: 
(Голосов: 0)
Сказали спасибо: 0  Спасибо
Похожие темы
[Профиль]    [ЛС]
Показать сообщения:    
Ответить на тему

Текущее время: Сегодня 13:07

Часовой пояс: GMT + 7



Вы не можете начинать темы
Вы не можете отвечать на сообщения
Вы не можете редактировать свои сообщения
Вы не можете удалять свои сообщения
Вы не можете голосовать в опросах
Вы не можете прикреплять файлы к сообщениям
Вы можете скачивать файлы