(Alternative Rock, Blues Rock, Jazz-Rock, Avantgarde) [CD] The Magic Band - Back To The Front - 2003, FLAC (tracks+.cue), lossless

Ответить на тему
Статистика раздачи [Обновить пиров]
Размер:  386 MB   |    Зарегистрирован:  9 дней   |    Скачан:  0 раз

Полного источника не было: Никогда

 
   
 
 
 
Автор Сообщение

torrentc.info

Создавать темы 06-Дек-2018 21:14

[Цитировать]

-- --The Magic Band - Back To The Front - 2003-- Жанр: Alternative Rock, Blues Rock, Jazz-Rock, Avantgarde
Носитель: CD (compilation, archival)
Страна-производитель диска (релиза): Made in Canada
Год издания оригинала: 2003
Издатель (лейбл): ATP Recordings
Номер по каталогу: ATPR6CD
Страна исполнителя (группы) : USA
Дата / место записи: Paradoxx Sound Studios, Palmdale, CA
Аудио кодек: FLAC (*.flac)
Тип рипа: (tracks + .cue)
Битрейт аудио: lossless
Наличие сканов в содержимом раздачи: full scans, png, 300 dpi
Продолжительность: 55:44
Источник (релизер): Моя коллекция, мой рип
Трэклист:
1 My Human Gets Me Blues 3:12
2 Click Clack 4:03
3 Abba Zaba 2:43
4 I'm Gonna Booglarize You Baby 4:23
5 Sun Zoom Spark 2:22
6 Alice In Blunderland 3:56
7 Steal Softly Thru Snow 2:37
8 Dropout Boogie 2:44
9 Moonlight On Vermont 3:34
10 Circumstances 3:51
11 On Tomorrow 3:46
12 The Floppy Boot Stomp 4:05
13 Hair Pie 2:26
14 Nowadays A Woman's Gotta Hit A Man 3:59
15 When It Blows Its Stacks 4:09
16 I Wanna Find A Woman That'll Hold My Big Toe Till I Have To Go 2:20
Bonus Track
17 Sure 'Nuff 'N Yes I Do
Written-By – Don Van Vliet (1-16)
Written-By – Don Van Vliet, Herb Bermann (17)
An informal, 'live-to-tape' rehearsal of the show organized for the 'All Tomorrow's Parties Festival'
Recorded during band warm-ups at Paradoxx Sound Studios, Palmdale, California.

ЛогиЛог создания рипа

Exact Audio Copy V1.3 from 2. September 2016
EAC extraction logfile from 5. November 2018, 11:52
The Magic Band / Back to the Front
Used drive : HL-DT-STDVDRAM GSA-T50N Adapter: 1 ID: 0
Read mode : SecureUtilize accurate stream : YesDefeat audio cache : YesMake use of C2 pointers : No
Read offset correction : 667Overread into Lead-In and Lead-Out : NoFill up missing offset samples with silence : YesDelete leading and trailing silent blocks : NoNull samples used in CRC calculations : YesUsed interface : Native Win32 interface for Win NT & 2000Gap handling : Appended to previous track
Used output format : User Defined EncoderSelected bitrate : 1024 kBit/sQuality : HighAdd ID3 tag : NoCommand line compressor : C:\Program Files\Exact Audio Copy\Flac\flac.exeAdditional command line options : -V -8 -T "Genre=%genre%" -T "Artist=%artist%" -T "Title=%title%" -T "Album=%albumtitle%" -T "Date=%year%" -T "Tracknumber=%tracknr%" %source% -o %dest%
TOC of the extracted CD
Track | Start | Length | Start sector | End sector --------------------------------------------------------- 1 | 0:00.00 | 3:12.02 | 0 | 14401 2 | 3:12.02 | 4:03.60 | 14402 | 32686 3 | 7:15.62 | 2:43.39 | 32687 | 44950 4 | 9:59.26 | 4:23.48 | 44951 | 64723 5 | 14:22.74 | 2:22.18 | 64724 | 75391 6 | 16:45.17 | 3:56.10 | 75392 | 93101 7 | 20:41.27 | 2:37.17 | 93102 | 104893 8 | 23:18.44 | 2:44.14 | 104894 | 117207 9 | 26:02.58 | 3:34.36 | 117208 | 133293 10 | 29:37.19 | 3:51.33 | 133294 | 150651 11 | 33:28.52 | 3:46.68 | 150652 | 167669 12 | 37:15.45 | 4:05.28 | 167670 | 186072 13 | 41:20.73 | 2:26.41 | 186073 | 197063 14 | 43:47.39 | 3:59.41 | 197064 | 215029 15 | 47:47.05 | 4:09.37 | 215030 | 233741 16 | 51:56.42 | 3:47.48 | 233742 | 250814
Track 1
Filename C:\music\MG rips\The Magic Band - Back To The Front - 2003 (ATP Recordings ATPR6CD) [FLAC]\01 - My Human Gets Me Blues.wav
Pre-gap length 0:00:02.00
Peak level 98.8 % Extraction speed 2.3 X Track quality 100.0 % Test CRC 52DADC30 Copy CRC 52DADC30 Accurately ripped (confidence 7) [CCFDC947] (AR v2) Copy OK
Track 2
Filename C:\music\MG rips\The Magic Band - Back To The Front - 2003 (ATP Recordings ATPR6CD) [FLAC]\02 - Click Clack.wav
Peak level 98.8 % Extraction speed 2.6 X Track quality 100.0 % Test CRC AFBE5E5C Copy CRC AFBE5E5C Accurately ripped (confidence 7) [CB038989] (AR v2) Copy OK
Track 3
Filename C:\music\MG rips\The Magic Band - Back To The Front - 2003 (ATP Recordings ATPR6CD) [FLAC]\03 - Abba Zaba.wav
Peak level 98.8 % Extraction speed 2.6 X Track quality 100.0 % Test CRC 5593F287 Copy CRC 5593F287 Accurately ripped (confidence 7) [ED94B783] (AR v2) Copy OK
Track 4
Filename C:\music\MG rips\The Magic Band - Back To The Front - 2003 (ATP Recordings ATPR6CD) [FLAC]\04 - I'm Gonna Booglarize You Baby.wav
Peak level 98.8 % Extraction speed 3.0 X Track quality 100.0 % Test CRC 8159656E Copy CRC 8159656E Accurately ripped (confidence 7) [89A39585] (AR v2) Copy OK
Track 5
Filename C:\music\MG rips\The Magic Band - Back To The Front - 2003 (ATP Recordings ATPR6CD) [FLAC]\05 - Sun Zoom Spark.wav
Peak level 98.8 % Extraction speed 2.9 X Track quality 100.0 % Test CRC 81B05AC5 Copy CRC 81B05AC5 Accurately ripped (confidence 7) [635970CE] (AR v2) Copy OK
Track 6
Filename C:\music\MG rips\The Magic Band - Back To The Front - 2003 (ATP Recordings ATPR6CD) [FLAC]\06 - Alice in Blunderland.wav
Peak level 98.8 % Extraction speed 3.3 X Track quality 100.0 % Test CRC 7F808D39 Copy CRC 7F808D39 Accurately ripped (confidence 7) [6DAB4D2F] (AR v2) Copy OK
Track 7
Filename C:\music\MG rips\The Magic Band - Back To The Front - 2003 (ATP Recordings ATPR6CD) [FLAC]\07 - Steal Softly thru Snow.wav
Peak level 98.8 % Extraction speed 3.2 X Track quality 100.0 % Test CRC 7F75FA18 Copy CRC 7F75FA18 Accurately ripped (confidence 7) [FE6C1842] (AR v2) Copy OK
Track 8
Filename C:\music\MG rips\The Magic Band - Back To The Front - 2003 (ATP Recordings ATPR6CD) [FLAC]\08 - Dropout Boogie.wav
Peak level 98.8 % Extraction speed 3.3 X Track quality 100.0 % Test CRC B4BE16C9 Copy CRC B4BE16C9 Accurately ripped (confidence 7) [FE9D4146] (AR v2) Copy OK
Track 9
Filename C:\music\MG rips\The Magic Band - Back To The Front - 2003 (ATP Recordings ATPR6CD) [FLAC]\09 - Moonlight on Vermont.wav
Peak level 98.8 % Extraction speed 3.2 X Track quality 99.9 % Test CRC E5B5C717 Copy CRC E5B5C717 Accurately ripped (confidence 7) [20404DEF] (AR v2) Copy OK
Track 10
Filename C:\music\MG rips\The Magic Band - Back To The Front - 2003 (ATP Recordings ATPR6CD) [FLAC]\10 - Circumstances.wav
Peak level 98.8 % Extraction speed 3.9 X Track quality 100.0 % Test CRC 2997B361 Copy CRC 2997B361 Accurately ripped (confidence 7) [117CCABF] (AR v2) Copy OK
Track 11
Filename C:\music\MG rips\The Magic Band - Back To The Front - 2003 (ATP Recordings ATPR6CD) [FLAC]\11 - On Tomorrow.wav
Peak level 98.8 % Extraction speed 4.0 X Track quality 100.0 % Test CRC 8FE7980B Copy CRC 8FE7980B Accurately ripped (confidence 7) [3D53C025] (AR v2) Copy OK
Track 12
Filename C:\music\MG rips\The Magic Band - Back To The Front - 2003 (ATP Recordings ATPR6CD) [FLAC]\12 - The Floppy Boot Stomp.wav
Peak level 98.8 % Extraction speed 3.7 X Track quality 99.9 % Test CRC A1B9A8D8 Copy CRC A1B9A8D8 Accurately ripped (confidence 7) [9DC3E706] (AR v2) Copy OK
Track 13
Filename C:\music\MG rips\The Magic Band - Back To The Front - 2003 (ATP Recordings ATPR6CD) [FLAC]\13 - Hair Pie.wav
Peak level 98.8 % Extraction speed 4.0 X Track quality 100.0 % Test CRC 0D113980 Copy CRC 0D113980 Accurately ripped (confidence 7) [F9604F6A] (AR v2) Copy OK
Track 14
Filename C:\music\MG rips\The Magic Band - Back To The Front - 2003 (ATP Recordings ATPR6CD) [FLAC]\14 - Nowadays a Woman's Gotta Hit a Man.wav
Peak level 98.8 % Extraction speed 4.3 X Track quality 100.0 % Test CRC 8A0AF1DF Copy CRC 8A0AF1DF Accurately ripped (confidence 7) [C8BB5391] (AR v2) Copy OK
Track 15
Filename C:\music\MG rips\The Magic Band - Back To The Front - 2003 (ATP Recordings ATPR6CD) [FLAC]\15 - When It Blows Its Stacks.wav
Peak level 98.8 % Extraction speed 4.6 X Track quality 100.0 % Test CRC 9B74365A Copy CRC 9B74365A Accurately ripped (confidence 7) [C81380DA] (AR v2) Copy OK
Track 16
Filename C:\music\MG rips\The Magic Band - Back To The Front - 2003 (ATP Recordings ATPR6CD) [FLAC]\16 - I Wanna Find a Woman That'll Hold My Big Toe till I Have to Go,Sure 'Nuff 'n Yes I Do.wav
Peak level 98.8 % Extraction speed 4.6 X Track quality 100.0 % Test CRC 88F37231 Copy CRC 88F37231 Accurately ripped (confidence 7) [733C99E7] (AR v2) Copy OK
All tracks accurately ripped
No errors occurred
End of status report
==== Log checksum 99036E47EC4A0A1D3F6043AB9D45C99232C2491E1A92852C144BDC010DA41531 ====

Содержание индексной карты (.CUE):

REM GENRE ExperimentalREM DATE 2003REM DISCID D00D1010REM COMMENT "ExactAudioCopy v1.3"PERFORMER "The Magic Band"TITLE "Back to the Front"REM COMPOSER ""FILE "01 - My Human Gets Me Blues.wav" WAVE TRACK 01 AUDIO TITLE "My Human Gets Me Blues" PERFORMER "The Magic Band" REM COMPOSER "" INDEX 01 00:00:00FILE "02 - Click Clack.wav" WAVE TRACK 02 AUDIO TITLE "Click Clack" PERFORMER "The Magic Band" REM COMPOSER "" INDEX 01 00:00:00FILE "03 - Abba Zaba.wav" WAVE TRACK 03 AUDIO TITLE "Abba Zaba" PERFORMER "The Magic Band" REM COMPOSER "" INDEX 01 00:00:00FILE "04 - I'm Gonna Booglarize You Baby.wav" WAVE TRACK 04 AUDIO TITLE "I'm Gonna Booglarize You Baby" PERFORMER "The Magic Band" REM COMPOSER "" INDEX 01 00:00:00FILE "05 - Sun Zoom Spark.wav" WAVE TRACK 05 AUDIO TITLE "Sun Zoom Spark" PERFORMER "The Magic Band" REM COMPOSER "" INDEX 01 00:00:00FILE "06 - Alice in Blunderland.wav" WAVE TRACK 06 AUDIO TITLE "Alice in Blunderland" PERFORMER "The Magic Band" REM COMPOSER "" INDEX 01 00:00:00FILE "07 - Steal Softly thru Snow.wav" WAVE TRACK 07 AUDIO TITLE "Steal Softly thru Snow" PERFORMER "The Magic Band" REM COMPOSER "" INDEX 01 00:00:00FILE "08 - Dropout Boogie.wav" WAVE TRACK 08 AUDIO TITLE "Dropout Boogie" PERFORMER "The Magic Band" REM COMPOSER "" INDEX 01 00:00:00FILE "09 - Moonlight on Vermont.wav" WAVE TRACK 09 AUDIO TITLE "Moonlight on Vermont" PERFORMER "The Magic Band" REM COMPOSER "" INDEX 01 00:00:00FILE "10 - Circumstances.wav" WAVE TRACK 10 AUDIO TITLE "Circumstances" PERFORMER "The Magic Band" REM COMPOSER "" INDEX 01 00:00:00FILE "11 - On Tomorrow.wav" WAVE TRACK 11 AUDIO TITLE "On Tomorrow" PERFORMER "The Magic Band" REM COMPOSER "" INDEX 01 00:00:00FILE "12 - The Floppy Boot Stomp.wav" WAVE TRACK 12 AUDIO TITLE "The Floppy Boot Stomp" PERFORMER "The Magic Band" REM COMPOSER "" INDEX 01 00:00:00FILE "13 - Hair Pie.wav" WAVE TRACK 13 AUDIO TITLE "Hair Pie" PERFORMER "The Magic Band" REM COMPOSER "" INDEX 01 00:00:00FILE "14 - Nowadays a Woman's Gotta Hit a Man.wav" WAVE TRACK 14 AUDIO TITLE "Nowadays a Woman's Gotta Hit a Man" PERFORMER "The Magic Band" REM COMPOSER "" INDEX 01 00:00:00FILE "15 - When It Blows Its Stacks.wav" WAVE TRACK 15 AUDIO TITLE "When It Blows Its Stacks" PERFORMER "The Magic Band" REM COMPOSER "" INDEX 01 00:00:00FILE "16 - I Wanna Find a Woman That'll Hold My Big Toe till I Have to Go,Sure 'Nuff 'n Yes I Do.wav" WAVE TRACK 16 AUDIO TITLE "I Wanna Find a Woman That'll Hold My Big Toe till I Have to Go/Sure 'Nuff 'n ..." PERFORMER "The Magic Band" REM COMPOSER "" INDEX 01 00:00:00

Лог проверки качества

Лог CUETools

[CUETools log; Date: 11/11/2018 7:49:36 AM; Version: 2.1.5][CTDB TOCID: Mu96C5R7zBojKWH.99Xok7KmT74-] found.Track | CTDB Status 1 | (17/17) Accurately ripped 2 | (17/17) Accurately ripped 3 | (17/17) Accurately ripped 4 | (17/17) Accurately ripped 5 | (17/17) Accurately ripped 6 | (17/17) Accurately ripped 7 | (17/17) Accurately ripped 8 | (17/17) Accurately ripped 9 | (16/17) Accurately ripped 10 | (17/17) Accurately ripped 11 | (17/17) Accurately ripped 12 | (17/17) Accurately ripped 13 | (17/17) Accurately ripped 14 | (17/17) Accurately ripped 15 | (17/17) Accurately ripped 16 | (17/17) Accurately ripped[AccurateRip ID: 001fc3a4-017e0af2-d00d1010] found.Track [ CRC | V2 ] Status 01 [40a3bf1e|ccfdc947] (03+07/13) Accurately ripped 02 [26c7d6a0|cb038989] (03+07/13) Accurately ripped 03 [d098a222|ed94b783] (03+07/13) Accurately ripped 04 [9f8cf754|89a39585] (03+07/13) Accurately ripped 05 [aeb76ea1|635970ce] (03+07/13) Accurately ripped 06 [29675341|6dab4d2f] (03+07/13) Accurately ripped 07 [0296c23d|fe6c1842] (03+07/13) Accurately ripped 08 [2f89fcb3|fe9d4146] (03+07/13) Accurately ripped 09 [f46b5054|20404def] (03+07/13) Accurately ripped 10 [b22b2981|117ccabf] (03+07/13) Accurately ripped 11 [21b74d01|3d53c025] (03+07/13) Accurately ripped 12 [51f4410b|9dc3e706] (03+07/13) Accurately ripped 13 [c56a71f4|f9604f6a] (03+07/13) Accurately ripped 14 [8a6cd1d1|c8bb5391] (03+07/13) Accurately ripped 15 [b256c1fa|c81380da] (03+07/13) Accurately ripped 16 [6635253f|733c99e7] (03+07/13) Accurately rippedOffsetted by 12: 01 [9484b9d2] (03/13) Accurately ripped 02 [f6cf9263] (03/13) Accurately ripped 03 [91534132] (03/13) Accurately ripped 04 [9d221141] (03/13) Accurately ripped 05 [64c1a474] (03/13) Accurately ripped 06 [f6a3a0e2] (03/13) Accurately ripped 07 [0644bba4] (03/13) Accurately ripped 08 [6146595c] (03/13) Accurately ripped 09 [d57c79c4] (03/13) Accurately ripped 10 [75ec5b99] (03/13) Accurately ripped 11 [b7c7294d] (03/13) Accurately ripped 12 [4364055d] (03/13) Accurately ripped 13 [6699c269] (03/13) Accurately ripped 14 [02c13ca3] (03/13) Accurately ripped 15 [2f223259] (03/13) Accurately ripped 16 [4cbcb85b] (03/13) Accurately ripped
Track Peak [ CRC32 ] [W/O NULL] [ LOG ] -- 98.8 [9DCC2596] [AB980534] 01 98.8 [52DADC30] [5699143F] CRC32 02 98.8 [AFBE5E5C] [752E6649] CRC32 03 98.8 [5593F287] [850F19F2] CRC32 04 98.8 [8159656E] [96619DA2] CRC32 05 98.8 [81B05AC5] [5127BA2C] CRC32 06 98.8 [7F808D39] [443CDAEA] CRC32 07 98.8 [7F75FA18] [9EB0B110] CRC32 08 98.8 [B4BE16C9] [27A2C943] CRC32 09 98.8 [E5B5C717] [A8FD7112] CRC32 10 98.8 [2997B361] [91CCC9B0] CRC32 11 98.8 [8FE7980B] [1E3489C0] CRC32 12 98.8 [A1B9A8D8] [A7CB4800] CRC32 13 98.8 [0D113980] [4AED0BA4] CRC32 14 98.8 [8A0AF1DF] [5E2C8166] CRC32 15 98.8 [9B74365A] [82F2B792] CRC32 16 98.8 [88F37231] [0FD80F95] CRC32

Замер динамического диапазона

foobar2000 1.3.10 / Замер динамического диапазона (DR) 1.1.1Дата отчёта: 2018-12-02 18:35:27
--------------------------------------------------------------------------------Анализ: The Magic Band / Back to the Front--------------------------------------------------------------------------------
DR Пики RMS Продолжительность трека--------------------------------------------------------------------------------DR8 -0.10 дБ -9.56 дБ 3:12 01-My Human Gets Me BluesDR7 -0.10 дБ -8.66 дБ 4:04 02-Click ClackDR8 -0.10 дБ -9.95 дБ 2:44 03-Abba ZabaDR8 -0.10 дБ -9.58 дБ 4:24 04-I'm Gonna Booglarize You BabyDR7 -0.10 дБ -9.02 дБ 2:22 05-Sun Zoom SparkDR8 -0.10 дБ -8.99 дБ 3:56 06-Alice in BlunderlandDR8 -0.10 дБ -9.30 дБ 2:37 07-Steal Softly thru SnowDR7 -0.10 дБ -8.36 дБ 2:44 08-Dropout BoogieDR8 -0.10 дБ -9.36 дБ 3:34 09-Moonlight on VermontDR7 -0.10 дБ -9.41 дБ 3:51 10-CircumstancesDR8 -0.10 дБ -9.67 дБ 3:47 11-On TomorrowDR8 -0.10 дБ -9.23 дБ 4:05 12-The Floppy Boot StompDR8 -0.10 дБ -8.84 дБ 2:27 13-Hair PieDR8 -0.10 дБ -9.71 дБ 4:00 14-Nowadays a Woman's Gotta Hit a ManDR7 -0.10 дБ -8.52 дБ 4:09 15-When It Blows Its StacksDR8 -0.10 дБ -11.32 дБ 3:48 16-I Wanna Find a Woman That'll Hold My Big Toe till I Have to Go/Sure 'Nuff 'n Yes I Do--------------------------------------------------------------------------------
Количество треков: 16Реальные значения DR: DR8
Частота: 44100 ГцКаналов: 2Разрядность: 16Битрейт: 788 кбит/сКодек: FLAC================================================================================
-

Back

Диск

Матрица

Об альбоме (сборнике):

pitchfork.com/reviews/
One of the many profound revelations stemming from the commemorative Grow Fins set that Revenant released at the end of the twentieth century is how crucial Captain Beefheart's Magic Band was to the compositional process behind their askew, beautiful music. For years the emphasis was on the enigmatic Captain himself, and at the heart of his rock legend lay Trout Mask Replica, whose 28 songs-- as the story goes-- Captain Beefheart (né Don Van Vliet) spurted out in 8 1/2 hours, fully-formed, then laid down in the studio with the Magic Band in a half that time. A revealing book penned by drummer John French, and an all instrumental practice tape from that time that accompanied the box and nixed such instant creation myths. The Band worked assiduously with scant food or money in a cult-like situation to make random notes and patterns-- bare scraps of madman thought-- cohere, winding through wildly varied trains of musical thought and figuring how to converge and crash into some alien semblance of sound sense. While I was crestfallen to have the human hands behind the god-like apparatus of Trout Mask Replica revealed, my dismay was quickly replaced by respect for how luminous the band actually was, seeing the intricate, impossible moving parts glimpsed without the iconoclastic bellows and musings of Don Van Vliet overwhelming them.
Even without Van Vliet (who retired from music in the early eighties), the reconvening of this league of gentlemen for the last All Tomorrow's Parties in Camber Sands was something special. That it took over thirty years for a portion of this anomalous music to finally be appreciated by the populace was an incredible breakthrough, and the chance for these hard-working musicians to get any bit of delayed recognition is deserved. To commemorate the event, the band headed into the studio to tape their rehearsals for the comeback concert. They slashed their way through the strongest points of the Beefheart catalog, focusing on early tracks such as "Abba Zabba" and "Dropout Boogie" to warm up before heading into the serrated edges of several Trout Mask tunes like "Steal Softly Through Snow", "Moonlight on Vermont" and "Hair Pie".
This version of The Magic Band serves as strata for the various phases of the group. None of the members ever played together-- as this lineup-- before, an intriguing match-up in and of its own right. From their nascent beginnings comes John "Drumbo" French, whose musical transcriptions of Van Vliet's of-the-moment blurts helped lay out most of Trout Mask Replicas. It's his multi-dimensional tom rhythms and snapping cymbals that "tied together" the numerous Beefheart records, according to the Captain himself. Bassist Mark "Rockette Morton" Boston came into the Trout Mask commune and played through Clear Spot. Even with all the extensive research that went into the Grow Fins project, they failed to unearth him, and he only recently resurfaced, still powered by "laser beans." Denny "Feelers Reebo" Walley was a latter-day guitarist on the original Shiny Beast while Gary "Mantis" Lucas was the Captain's manager near the end of his career, actualizing the near-impossible guitar compositions like "Flavor Bud Living" and "Evening Bell". It's a shame that Bill "Zoot Horn Rollo" Harkleroad could not join in the proceedings.

Состав

Bass [Middle Earth Bass] – Mark Boston
Drums [Perspective Drums], Vocals, Harmonica – John French
Guitar – Denny Walley, Gary Lucas
Producer – John French, Bob Weston
-Если нет сидов - пришлите мне ЛС


[torrentc.info]_t_5653644.torrent
Торрент: Зарегистрирован ·  [ 2018-12-06 21:14 ] ·  3dcd0414bc79e41e9e50e997fc3791e4e86f93e2

17 KB

Статус: проверено
Скачан: 0 раз
Размер: 386 MB
Оценка: 
(Голосов: 0)
Сказали спасибо: 0  Спасибо
Похожие темы
[Профиль]    [ЛС]
Показать сообщения:    
Ответить на тему

Текущее время: Сегодня 12:55

Часовой пояс: GMT + 7



Вы не можете начинать темы
Вы не можете отвечать на сообщения
Вы не можете редактировать свои сообщения
Вы не можете удалять свои сообщения
Вы не можете голосовать в опросах
Вы не можете прикреплять файлы к сообщениям
Вы можете скачивать файлы