Капитан Марвел / Captain Marvel (Анна Боден, Райан Флек) [2019, фантастика, боевик, приключения, HDRip, PCM/DTS/AC-3/MP3 Audio] Tрейлер #2

Ответить на тему
Статистика раздачи [Обновить пиров]
Размер:  729 MB   |    Зарегистрирован:  9 дней   |    Скачан:  0 раз

Полного источника не было: Никогда

 
   
 
 
 
Автор Сообщение

torrentc.info

Создавать темы 06-Дек-2018 21:14

[Цитировать]

Капитан Марвел / Captain Marvel
[img=right]https://i107.fastpic.ru/big/2018/1204/b0/ca396f5d11...3b17b0.jpg[/img]
Тип раздаваемого материала: трейлер
Год выхода фильма: 2019
Страна: США
Жанр: фантастика, боевик, приключения
Продолжительность: 00:02:25
Перевод: Дубляж (отдельным файлом)
Русские субтитры: нет-Режиссер: Анна Боден, Райан Флек
Сценарий: Анна Боден, Джин Колан, Лиз Флэхайв, ...
Продюсеры: Кевин Файги, Виктория Алонсо, Луис Д’Эспозито, ...-В ролях: Бри Ларсон, Джемма Чан, Джуд Лоу, МакКенна Грейс, Бен Мендельсон, Ли Пейс, Сэмюэл Л. Джексон, Джимон Хонсу, Рюн Темт, Аннетт Бенинг...-Описание: После столкновения с враждующими инопланетными расами пилот военно-воздушных сил Кэрол Дэнверс обретает суперсилу и становится неуязвимой. Героине предстоит совладать со своими новыми способностями, чтобы противостоять могущественному врагу.-Дата выхода (США): 6 марта 2018
Премьера (РФ): 7 марта 2018, WDSSPR-Качество: HDRip
Формат файла: MKV
Видео кодек: H264
Аудио кодек: PCM/DTS/AC-3
Видео: AVC, 8bit, 4:2:0, High@L4.1, 1920x800 (2.40:1), 23,976 fps, 32.9 Mbps
Аудио: только английский
1) PCM / 5.1 / 48 kHz / 6912 kb/s / 24 bit
2) DTS / 5.1 / 48 kHz / 1536 kb/s / 24 bit
3) AC-3 / 5.1 / 48 kHz / 640 kb/s
4) MP3 / 2.0 / 44.1 kHz / 128 kb/s

MI

General
Unique ID : 188930519405078841717292900136516961771 (0x8E22B1C8FCFECC4D94DD5C115475C5EB)
Complete name : D:\Video\=Trailers=\CAPTAIN_MARVEL_TLR2.mkv
Format : Matroska
Format version : Version 4 / Version 2
File size : 727 MiB
Duration : 2 min 25 s
Overall bit rate : 41.9 Mb/s
Movie name : Captain Marvel -thedigitaltheater.com
Encoded date : UTC 2018-12-04 10:55:36
Writing application : mkvmerge v12.0.0 ('Trust / Lust') 64bit
Writing library : libebml v1.3.4 + libmatroska v1.4.5
Video
ID : 1
Format : AVC
Format/Info : Advanced Video Codec
Format profile : High@L4.1
Format settings, CABAC : Yes
Format settings, RefFrames : 4 frames
Codec ID : V_MPEG4/ISO/AVC
Duration : 2 min 25 s
Bit rate : 32.9 Mb/s
Width : 1 920 pixels
Height : 800 pixels
Display aspect ratio : 2.40:1
Frame rate mode : Constant
Frame rate : 23.976 (24000/1001) FPS
Color space : YUV
Chroma subsampling : 4:2:0
Bit depth : 8 bits
Scan type : Progressive
Bits/(Pixel*Frame) : 0.893
Stream size : 569 MiB (78%)
Default : Yes
Forced : No
Color range : Limited
Color primaries : BT.709
Transfer characteristics : BT.709
Matrix coefficients : BT.709
Audio #1
ID : 2
Format : PCM
Codec ID : A_PCM/INT/LIT
Duration : 2 min 25 s
Bit rate mode : Constant
Bit rate : 6 912 kb/s
Channel(s) : 6 channels
Sampling rate : 48.0 kHz
Frame rate : 32.006 FPS (1500 SPF)
Bit depth : 24 bits
Delay relative to video : 6 ms
Stream size : 120 MiB (16%)
Language : English
Default : Yes
Forced : No
Audio #2
ID : 3
Format : DTS
Format/Info : Digital Theater Systems
Mode : 16
Format settings, Endianness : Big
Codec ID : A_DTS
Duration : 2 min 25 s
Bit rate mode : Constant
Bit rate : 1 536 kb/s
Channel(s) : 6 channels
Channel positions : Front: L C R, Side: L R, LFE
Sampling rate : 48.0 kHz
Frame rate : 93.750 FPS (512 SPF)
Bit depth : 24 bits
Compression mode : Lossy
Delay relative to video : 4 ms
Stream size : 26.6 MiB (4%)
Language : English
Default : No
Forced : No
Audio #3
ID : 4
Format : AC-3
Format/Info : Audio Coding 3
Format settings, Endianness : Big
Codec ID : A_AC3
Duration : 2 min 25 s
Bit rate mode : Constant
Bit rate : 640 kb/s
Channel(s) : 6 channels
Channel positions : Front: L C R, Side: L R, LFE
Sampling rate : 48.0 kHz
Frame rate : 31.250 FPS (1536 SPF)
Bit depth : 16 bits
Compression mode : Lossy
Delay relative to video : 4 ms
Stream size : 11.1 MiB (2%)
Language : English
Service kind : Complete Main
Default : No
Forced : No
Audio RUS
Format : MPEG Audio
Format version : Version 1
Format profile : Layer 3
Mode : Joint stereo
Duration : 2 min 34 s
Bit rate mode : Constant
Bit rate : 128 kb/s
Channel(s) : 2 channels
Sampling rate : 44.1 kHz
Compression mode : Lossy
Stream size : 2.35 MiB (99%)

Дополнительная информацияEn.Wiki

[url=https://en.wikipedia.org/wiki/Captain_Marvel_(film)]https://en.wikipedia.org/wiki/Captain_Marvel_(film)[/url]


[torrentc.info]_t_5654755.torrent
Торрент: Зарегистрирован ·  [ 2018-12-06 21:14 ] ·  064dd6baf749944f54ba804405ed73b04df38b51

15 KB

Статус: проверено
Скачан: 0 раз
Размер: 729 MB
Оценка: 
(Голосов: 0)
Сказали спасибо: 0  Спасибо
Похожие темы
[Профиль]    [ЛС]
Показать сообщения:    
Ответить на тему

Текущее время: Сегодня 13:00

Часовой пояс: GMT + 7



Вы не можете начинать темы
Вы не можете отвечать на сообщения
Вы не можете редактировать свои сообщения
Вы не можете удалять свои сообщения
Вы не можете голосовать в опросах
Вы не можете прикреплять файлы к сообщениям
Вы можете скачивать файлы