Голубая игуана / Blue Iguana (Хади Хаджэйг / Hadi Hajaig) [2018, Великобритания, триллер, мелодрама, комедия, BDRip] Dub (iTunes)

Ответить на тему
 
Автор Сообщение

torrentc.info

Создавать темы 06-Дек-2018 20:06

[Цитировать]

Голубая игуана / Blue Iguana
[img=right]https://i2.imageban.ru/out/2018/12/05/3d28fed305ddc...8230d6.jpg[/img]
Страна: Великобритания
Жанр: триллер, мелодрама, комедия
Год выхода: 2018
Продолжительность: 01:41:09-Перевод: Профессиональный (дублированный) | iTunes
Субтитры: нет
Оригинальная аудиодорожка: нет-Режиссер: Хади Хаджэйг / Hadi Hajaig-В ролях: Сэм Рокуэлл, Бен Шварц, Саймон Кэллоу, Аманда Донохью, Фрэнсис Барбер, Фиби Фокс, Аль Уивер, Питер Фердинандо, Дженни Беде, Энтон Саундерс-Описание: Мелкие мошенники Эдди и Пол досрочно выходят из тюрьмы и устраиваются на работу в нью-йоркское кафе. Казалось, им не светит уже ничего интересного в этой жизни. Но однажды к ним в забегаловку заглядывает авантюристка Кэтрин Руквуд. Она уговаривает парней отправиться в Лондон и украсть уникальный бриллиант — «Голубую игуану».-[img]https://rating.kinopoisk.ru/675470.gif[/img]-Качество видео: BDRip | Blue.Iguana.2018.1080p.BluRay.REMUX.AVC.DD5.1.Rus.Eng
Формат файла: AVI
Видео: 720x304 (2.37:1), 23.976 fps, XviD build 73 ~1676 kbps avg, 0.32 bit/pixel
Аудио: 48 kHz, AC3 Dolby Digital, 3/2 (L,C,R,l,r) + LFE ch, ~384 kbps-

Сэмпл-

MediaInfo

Формат файла                                   : AVI
Формат файла/Информация                        : Audio Video Interleave
Размер файла                             : 1,46 Гбайт
Продолжительность                        : 1 ч. 41 м.
Общий поток                              : 2069 Кбит/сек
Программа кодирования                    : VirtualDubMod 1.5.10.3 | www.virtualdub-fr.org || (build 2550/release)
Библиотека кодирования                   : VirtualDubMod build 2550/release
Видео
Идентификатор                            : 0
Формат файла                                   : MPEG-4 Visual
Профиль формата                          : Advanced Simple@L5
Настройки формата                        : BVOP1 / Custom Matrix
Параметр BVOP формата                    : 1
Параметр QPel формата                    : Нет
Параметр GMC формата                     : Без точки перехода
Параметр матрицы формата                 : Выборочная
Идентификатор кодека                     : XVID
Идентификатор кодека/Подсказка           : XviD
Продолжительность                        : 1 ч. 41 м.
Битрейт                                  : 1677 Кбит/сек
Ширина                                   : 720 пикселей
Высота                                   : 304 пикселя
Соотношение сторон                       : 2,35:1
Частота кадров                           : 23,976 (24000/1001) кадра/сек
Цветовое пространство                    : YUV
Субдискретизация насыщенности            : 4:2:0
Битовая глубина                          : 8 бит
Тип развёртки                            : Прогрессивная
Метод сжатия                             : С потерями
Бит/(Пиксели*Кадры)                      : 0.320
Размер потока                            : 1,18 Гбайт (81%)
Библиотека кодирования                   : XviD 73
Аудио
Идентификатор                            : 1
Формат файла                                   : AC-3
Формат файла/Информация                        : Audio Coding 3
Коммерческое название                    : Dolby Digital
Идентификатор кодека                     : 2000
Продолжительность                        : 1 ч. 40 м.
Вид битрейта                             : Постоянный
Битрейт                                  : 384 Кбит/сек
Каналы                                   : 6 каналов
Channel layout                           : L R C LFE Ls Rs
Частота                                  : 48,0 КГц
Частота кадров                           : 31,250 кадров/сек (1536 SPF)
Битовая глубина                          : 16 бит
Метод сжатия                             : С потерями
Размер потока                            : 277 Мбайт (18%)
Выравнивание                             : Разделение по промежуткам
Продолжительность промежутка             : 42  мс. (1,00 видеокадр)
Время предзагрузки промежутка            : 500  мс.
ServiceKind/String                       : Complete Main
[Профиль]    [ЛС]
Показать сообщения:    
Ответить на тему

Текущее время: Сегодня 12:53

Часовой пояс: GMT + 7



Вы не можете начинать темы
Вы не можете отвечать на сообщения
Вы не можете редактировать свои сообщения
Вы не можете удалять свои сообщения
Вы не можете голосовать в опросах
Вы не можете прикреплять файлы к сообщениям
Вы не можете скачивать файлы