Операция «Финал» / Operation Finale (Крис Вайц / Chris Weitz) [2018, США, триллер, драма, биография, история, BDRip] Dub

Ответить на тему
 
Автор Сообщение

torrentc.info

Создавать темы 06-Дек-2018 20:06

[Цитировать]

Операция «Финал» / Operation Finale-[img=right]https://i5.imageban.ru/out/2018/12/06/6c2ab28ff2cd8...6c4dec.png[/img]
Год выхода: 2018
Выпущено: США / Metro-Goldwyn-Mayer (MGM)
Жанр: боевик, драма, биография, история
Продолжительность: 02:02:38
Перевод: Профессиональный (полное дублирование)
Субтитры: Русские (форсированные) (внешние *.srt)-Режиссер:
Крис Вайц / Chris Weitz-В ролях:
Оскар Айзек (Peter Malkin), Бен Кингсли (Adolph Eichmann), Мелани Лоран (Hanna Elian), Лайор Раз (Isser Harel), Ник Кролл (Rafi Eitan), Майкл Аронов (Zvi Aharoni), Охад Кноллер (Ephraim Ilani), Грег Хилл (Moshe Tabor), Торбен Либрехт (Yaakov Gat), Майкл Бенжамин Эрнандес (Dani Shalom)-О фильме:
Через 15 лет после окончания Второй мировой войны создаётся команда спецагентов, чтобы выследить Адольфа Эйхмана — печально известного сотрудника гестапо, отвечавшего за «окончательное решение еврейского вопроса»-
| | IMDB | КиноПоиск | Сэмпл |-Качество: BDRip [Operation.Finale.2018.REMUX.1080p.AVC.DTS-HD.MA.5.1-iFT]
Формат файла: AVI
Видео: 704x384 (1.83:1), 23.976 fps, XviD build 67 ~1310 kbps avg, 0.20 bit/pixel
Аудио: 48 kHz, AC3 Dolby Digital, 3/2 (L,C,R,l,r) + LFE ch, ~384 kbps avg-
[img]https://i6.imageban.ru/thumbs/2018.12.06/0100f7007555014d3c5b4b0d0604a99f.jpg[/img]-[img]https://i6.imageban.ru/thumbs/2018.12.06/e654c4b89b8a285515470062aad34e0b.jpg[/img][img]https://i2.imageban.ru/thumbs/2018.12.06/8ba9112634da97efabdd19717e1aff34.jpg[/img][img]https://i2.imageban.ru/thumbs/2018.12.06/8b055850e8b8c837560bce4b44d8fa03.jpg[/img][img]https://i6.imageban.ru/thumbs/2018.12.06/b78ee4642e0983c4e45ea758621d8d16.jpg[/img]MediaInfo">

Скриншоты[img]https://i6.imageban.ru/thumbs/2018.12.06/0100f7007555014d3c5b4b0d0604a99f.jpg[/img]-[img]https://i6.imageban.ru/thumbs/2018.12.06/e654c4b89b8a285515470062aad34e0b.jpg[/img][img]https://i2.imageban.ru/thumbs/2018.12.06/8ba9112634da97efabdd19717e1aff34.jpg[/img][img]https://i2.imageban.ru/thumbs/2018.12.06/8b055850e8b8c837560bce4b44d8fa03.jpg[/img][img]https://i6.imageban.ru/thumbs/2018.12.06/b78ee4642e0983c4e45ea758621d8d16.jpg[/img]MediaInfo

Общее
Полное имя                               : D:\Operaciya_Final_2018_BDRip_by_Dalemake.avi
Формат файла                                   : AVI
Формат файла/Информация                        : Audio Video Interleave
Размер файла                             : 1,46 Гбайт
Продолжительность                        : 2 ч. 2 м.
Общий поток                              : 1704 Кбит/сек
Программа кодирования                    : VirtualDubMod 1.5.10.3 | www.virtualdub-fr.org || (build 2550/release)
Библиотека кодирования                   : VirtualDubMod build 2550/release
Видео
Идентификатор                            : 0
Формат файла                                   : MPEG-4 Visual
Профиль формата                          : Advanced Simple@L5
Параметр BVOP формата                    : 1
Параметр QPel формата                    : Нет
Параметр GMC формата                     : Без точки перехода
Параметр матрицы формата                 : Выборочная
Идентификатор кодека                     : XVID
Идентификатор кодека/Подсказка           : XviD
Продолжительность                        : 2 ч. 2 м.
Битрейт                                  : 1310 Кбит/сек
Ширина                                   : 704 пикселя
Высота                                   : 384 пикселя
Соотношение сторон                       : 1,85:1
Частота кадров                           : 23,976 кадра/сек
Цветовое пространство                    : YUV
Субдискретизация насыщенности            : 4:2:0
Битовая глубина                          : 8 бит
Тип развёртки                            : Прогрессивная
Метод сжатия                             : С потерями
Бит/(Пиксели*Кадры)                      : 0.202
Размер потока                            : 1,12 Гбайт (77%)
Библиотека кодирования                   : XviD 67
Аудио
Идентификатор                            : 1
Формат файла                                   : AC-3
Формат файла/Информация                        : Audio Coding 3
Расширение режима                        : CM (complete main)
Параметр Endianness формата              : Big
Идентификатор кодека                     : 2000
Продолжительность                        : 2 ч. 2 м.
Вид битрейта                             : Постоянный
Битрейт                                  : 384 Кбит/сек
Каналы                                   : 6 каналов
Расположение каналов                     : Front: L C R, Side: L R, LFE
Частота                                  : 48,0 КГц
Метод сжатия                             : С потерями
Размер потока                            : 337 Мбайт (23%)
Выравнивание                             : Разделение по промежуткам
Продолжительность промежутка             : 42  мс. (1,00 видеокадр)
Время предзагрузки промежутка            : 500  мс.

Источник: Torrentc

http://Torrentc/forum/viewtopic.php?t=5622878
-
Цитата: писал(а):

* создан при финансовой поддержке EniaHD
[Профиль]    [ЛС]
Показать сообщения:    
Ответить на тему

Текущее время: Сегодня 12:53

Часовой пояс: GMT + 7



Вы не можете начинать темы
Вы не можете отвечать на сообщения
Вы не можете редактировать свои сообщения
Вы не можете удалять свои сообщения
Вы не можете голосовать в опросах
Вы не можете прикреплять файлы к сообщениям
Вы не можете скачивать файлы