[TR24][OF] KK Null - Giga Extropy Live in Russia, Beijing & Tokyo - 2018 (Experimental, Noise, Industrial)

Ответить на тему
Статистика раздачи [Обновить пиров]
Размер:  1.89 GB   |    Зарегистрирован:  6 дней   |    Скачан:  0 раз

Полного источника не было: Никогда

 
   
 
 
 
Автор Сообщение

torrentc.info

Создавать темы 06-Дек-2018 20:06

[Цитировать]

KK Null
[img]https://i107.fastpic.ru/big/2018/1202/a9/3279126e2b...cba5a9.jpg[/img]
Giga Extropy Live in Russia, Beijing & Tokyo
Формат файла записи/Источник записи: [TR24][OF]
Наличие водяных знаков: Нет
Год издания/переиздания диска: 2018
Жанр: Experimental, Noise, Industrial
Издатель (лейбл): n/a
Продолжительность: 02:10:24
Наличие сканов в содержимом раздачи: Только обложка альбома
Формат файла: FLAC (*.flac)
Тип рипа: tracks
Разрядность: 24/44/48
Формат файла: WAV (flac.ape.wv)
Количество каналов: 2.0
Источник (релизер): Red, Nutski -> BC

2018 - Giga Extropy in Russia 1

[img=right]https://i108.fastpic.ru/big/2018/1204/32/_603e24a41...631e32.jpg[/img]
Разрядность: 24/44
Источник: Bandcamp
Продолжительность: 00:38:44
Трэклист:
1. Giga Extropy in Russia 1_ part 1 27:21
2. Giga Extropy in Russia 1_ part 2 11:23
All music composed & produced by Kazuyuki Kishino @ prima natura studio and performed live by KK NULL @ DOM Cultural Center in Moscow on April 22, 2018. Maximum Spasiba to Alexei Borisov and Dmitry Demchenko.-

Лог проверки качества

foobar2000 1.1.5 / Замер динамического диапазона (DR) 1.1.1Дата отчёта: 2018-12-01 09:31:50
--------------------------------------------------------------------------------Анализ: KK NULL / Giga Extropy in Russia 1--------------------------------------------------------------------------------
DR Пики RMS Продолжительность трека--------------------------------------------------------------------------------DR2 0.00 дБ -4.25 дБ 27:21 01-Giga Extropy in Russia 1_ part 1DR2 0.00 дБ -4.05 дБ 11:23 02-Giga Extropy in Russia 1_ part 2--------------------------------------------------------------------------------
Количество треков: 2Реальные значения DR: DR2
Частота: 44100 ГцКаналов: 2Разрядность: 24Битрейт: 1847 кбит/сКодек: FLAC================================================================================

2018 - Giga Extropy in Russia 2

[img=right]https://i107.fastpic.ru/big/2018/1202/3e/_40c4d60bb...ed7e3e.jpg[/img]
Разрядность: 24/48
Источник: Bandcamp
Продолжительность: 00:33:15
Трэклист:
1. Giga Extropy in Russia 2 33:15
All music composed & produced by Kazuyuki Kishino @ prima natura studio and performed live by KK NULL in Yaroslavl on April 26 & St. Petersburg on April 29, 2018. Maximum Spasiba to Alexei Borisov and Dmitry Demchenko.-

Лог проверки качества

foobar2000 1.1.5 / Замер динамического диапазона (DR) 1.1.1Дата отчёта: 2018-12-02 18:29:17
--------------------------------------------------------------------------------Статистика для: 01-Giga Extropy in Russia 2Количество сэмплов: 95760000Продолжительность: 33:15--------------------------------------------------------------------------------
Левый Правый
Пики: 0.00 дБ --- 0.00 дБСредний RMS: -5.33 дБ --- -4.68 дБDR канала: 3.46 дБ --- 1.86 дБ--------------------------------------------------------------------------------
Реальные значения DR: DR3
Частота: 48000 ГцКаналов: 2Разрядность: 24Битрейт: 2104 кбит/сКодек: FLAC================================================================================

2018 - Giga Extropy in Beijing & Tokyo

[img=right]https://i106.fastpic.ru/big/2018/1202/75/_d59b3e900...e94b75.jpg[/img]
Разрядность: 24/48
Источник: Bandcamp
Продолжительность: 00:58:25
Трэклист:
1. Giga Extropy in Beijing 29:35
2. Giga Extropy in Tokyo 28:50
All music composed & produced by Kazuyuki Kishino @ prima natura studio and performed live by KK NULL at International Intermedia Art Festival in Beijing on October 27, 2018 and at "Kaiju vs Modular" in Tokyo on October 28, 2018. Maximum 謝謝 Gratitude to Dajuin Yao and Dave Skipper.-

Лог проверки качества

foobar2000 1.1.5 / Замер динамического диапазона (DR) 1.1.1Дата отчёта: 2018-12-02 19:08:04
--------------------------------------------------------------------------------Анализ: KK NULL / Giga Extropy in Beijing & Tokyo--------------------------------------------------------------------------------
DR Пики RMS Продолжительность трека--------------------------------------------------------------------------------DR0 0.00 дБ -1.79 дБ 29:35 01-Giga Extropy in BeijingDR1 0.00 дБ -3.05 дБ 28:50 02-Giga Extropy in Tokyo--------------------------------------------------------------------------------
Количество треков: 2Реальные значения DR: DR1
Частота: 48000 ГцКаналов: 2Разрядность: 24Битрейт: 2114 кбит/сКодек: FLAC================================================================================

Об альбоме Extropy Ground Zero

[img]https://i106.fastpic.ru/big/2018/1202/f8/5347f92116...0dd7f8.jpg[/img]
In Extropy Ground Zero, Kazuyuki Kishino displays an intriguing approach towards the genre of experimental noise. Deviating from his usual genre style, he unleashes new material of percussive blast-beats which take dominance in the 2 tracks (one studio and one live) contained within. The juxtaposition of electronic percussive noise tempo against layers of interweaving swooshes and electronic bleeps provide a captivating ambience of sound, which reflect KK Null's unique creative process in noise experimentation.


[torrentc.info]_t_5653639.torrent
Торрент: Зарегистрирован ·  [ 2018-12-06 20:06 ] ·  0444a24f56036ee6a71da35aeec363380cafe978

20 KB

Статус: проверено
Скачан: 0 раз
Размер: 1.89 GB
Оценка: 
(Голосов: 0)
Сказали спасибо: 0  Спасибо
Похожие темы
[Профиль]    [ЛС]
Показать сообщения:    
Ответить на тему

Текущее время: Сегодня 01:55

Часовой пояс: GMT + 7



Вы не можете начинать темы
Вы не можете отвечать на сообщения
Вы не можете редактировать свои сообщения
Вы не можете удалять свои сообщения
Вы не можете голосовать в опросах
Вы не можете прикреплять файлы к сообщениям
Вы можете скачивать файлы