[TR24][OF] The Willows - Through the Wild - 2018 (Folk Rock)

Ответить на тему
Статистика раздачи [Обновить пиров]
Размер:  1021 MB   |    Зарегистрирован:  9 дней   |    Скачан:  0 раз

Полного источника не было: Никогда

 
   
 
 
 
Автор Сообщение

torrentc.info

Создавать темы 06-Дек-2018 20:01

[Цитировать]


The Willows

Through the Wild

[img]https://i108.fastpic.ru/big/2018/1202/de/6acb8c8a81...4eb5de.jpg[/img]

• Формат файла записи | Источник записи: [TR24][OF]
• Наличие водяных знаков: Нет
• Год издания релиза: 2018
• Жанр: Folk Rock
• Продолжительность: 00:47:11
• Источник, релизер: BNMus
• WEB 7digital
• Формат файла: FLAC (*.flac)
• Тип рипа: tracks
• Разрядность: 24/96
• Формат файла: WAV (flac.ape.wv)
• Количество каналов: 2.0
• Наличие сканов: front

01 - Coda (00:03:32)
02 - Better Days (00:04:25)
03 - True Lovers' Ferry (00:04:08)
04 - Perfect Crime Ernest Durham's (00:04:51)
05 - Honest Man (00:04:35)
06 - Pearl Hart (00:04:06)
07 - Out Of Our Hands (00:04:49)
08 - False Light (00:05:02)
09 - Gog Magog (00:05:26)
10 - Dear Lilly (00:06:12)
-

• Замер динамического диапазона •

foobar2000 1.3.17 / Замер динамического диапазона (DR) 1.1.1Дата отчёта: 2018-12-02 19:12:20
--------------------------------------------------------------------------------Анализ: The Willows / Through the Wild--------------------------------------------------------------------------------
DR Пики RMS Продолжительность трека--------------------------------------------------------------------------------DR8 -1.50 дБ -10.65 дБ 3:32 01-CodaDR7 -1.50 дБ -12.77 дБ 4:25 02-Better DaysDR8 -1.50 дБ -12.26 дБ 4:08 03-True Lovers' FerryDR7 -1.60 дБ -10.18 дБ 4:52 04-Perfect Crime Ernest Durham'sDR9 -1.50 дБ -13.36 дБ 4:35 05-Honest ManDR7 -1.50 дБ -10.67 дБ 4:07 06-Pearl HartDR10 -1.50 дБ -14.52 дБ 4:50 07-Out Of Our HandsDR8 -1.50 дБ -11.65 дБ 5:03 08-False LightDR7 -1.50 дБ -11.11 дБ 5:27 09-Gog MagogDR9 -1.50 дБ -14.46 дБ 6:12 10-Dear Lilly--------------------------------------------------------------------------------
Количество треков: 10Реальные значения DR: DR8
Частота: 96000 ГцКаналов: 2Разрядность: 24Битрейт: 3058 кбит/сКодек: FLAC================================================================================
-


[torrentc.info]_t_5653608.torrent
Торрент: Зарегистрирован ·  [ 2018-12-06 20:01 ] ·  c00df264d70b98371d698f5f1ecec22652a15bda

21 KB

Статус: проверено
Скачан: 0 раз
Размер: 1021 MB
Оценка: 
(Голосов: 0)
Сказали спасибо: 0  Спасибо
Похожие темы
[Профиль]    [ЛС]
Показать сообщения:    
Ответить на тему

Текущее время: Сегодня 12:55

Часовой пояс: GMT + 7



Вы не можете начинать темы
Вы не можете отвечать на сообщения
Вы не можете редактировать свои сообщения
Вы не можете удалять свои сообщения
Вы не можете голосовать в опросах
Вы не можете прикреплять файлы к сообщениям
Вы можете скачивать файлы