(Dubstep, Breakbeat, Drum & Bass, Breaks, House) [100xCD] VA - Label Fabric: FABRICLIVE Series - 2001-2018 , FLAC (tracks+.cue), lossless

Ответить на тему
Статистика раздачи [Обновить пиров]
Размер:  47.05 GB   |    Зарегистрирован:  9 дней   |    Скачан:  0 раз

Полного источника не было: Никогда

 
   
 
 
 
Автор Сообщение

torrentc.info

Создавать темы 06-Дек-2018 19:29

[Цитировать]

FABRICLIVE

Жанр: Dubstep, Breakbeat, Drum & Bass, Breaks, House
Страна-издатель: UK
Год издания диска: 2001-2018
Тип издания: CD, Compilation, Mixed
Издатель (лейбл): Fabric (London)
Аудиокодек: FLAC (*.flac)
Тип рипа: tracks+.cue
Источник (релизер): LOSSLESS FROM DMMANIAC from
Продолжительность: 118:51:04
Наличие сканов в содержимом раздачи: мало, почти нет (discogs)

About Fabric

Fabric расположен на улице Чартерхаус 77a в Лондоне. Клуб занимает отреставрированное помещение Центральной Холодильной Камеры, прямо напротив которой находится знаменитый и последний из лондонских “великих рынков” - Смитфилдский Мясной Рынок. Архитектура района относится к викторианской эпохе, в непосредственной близости от клуба находятся исторические достопримечательности Лондона - Холборн Ваедакт и Флит Воллей Бридж.
После Второй Мировой Войны все жители района мигрировали в предместья Лондона. Здания опустели и в последствии стали исключительно использоваться для коммерческих целей в будние дни. Следуя примеру расположенного поблизости крупного культурного центра Лондона, Барбикан Сентер, Fabric был признан главным толчком для возрождения района, который сейчас стал одним из лучших примеров круглосуточного отдыха в Лондоне.
Клуб, основанный Китом Рейли (Keith Reilly) и Камерон Лесли (Cameron Leslie), был открыт в октябре 1999 года. Внутри находится три отделенные друг от друга помещения с независимыми аудиосистемами. Уникальной особенностью клуба является его вибрирующий пол в Комнате 1.
Так же в клубе находится первый в Европе танцпол, названый "bodysonic", на котором установлена звуковая система с 400 басовыми преобразователями, излучающими низкие частоты с такой силой и чистотой, что клабберы способны в буквальном смысле почувствовать музыку, в действительности сотрясающую все тело.
Всего в Fabric пять аудиосистем и три бара, расположенных на двух уровнях общей площадью 820 квадратных метра.
В клубе проходит две серии вечеринок: пятничные Fabriclive, посвященные музыке с ломаным ритмом, и субботние - Fabric, концепт которых крутится вокруг техно и хаус музыки.
Лайн-апу каждой из вечеринок мог бы позавидовать небольшой фестиваль – за ночь в клубе звучат лайв-выступления и ди-джей сеты от, по меньшей мере, пятнадцати артистов, из которых минимум три человека первой величины на мировой электронной сцене.
Всемирную же известность и культовый статус клубу принес, запущен на его основе, лейбл Fabric (London), на котором выходят ди-джейские миксы самых влиятельных и интересных ди-джеев мира. Диски выходят в двух, одноименных с вечеринками, сериях.
Этот клуб называют самым политизированным из клубных очагов Лондона. В акциях поддержки, проходящих в Fabric, участвовали Gorillaz, Massive Attack, Daft Punk и многие другие.
Резиденты клуба: James Lavelle, Craig Richards, Terry Francis, The Stanton Warriors.
Треклист:

Fabriclive 01 - James Lavelle (2001):

Label/Cat#: Fabric (London) – Fabric2
Country: UK
Year: 03 Dec 2001
Genre: Electronic
Style: Breaks, Tech House
Format: CD, Mixed
Tracklist
1. Intro: A Message To Our Sponsors (0:27)
2. Rare Earth – Get Ready (1:17)
3. Psychonauts – Circles (3:49)
4. DJ Shadow – Organ Donor (1:11)
5. Divine Styler & DJ Shadow – Divine Intervention (4:39)
6. South – Broken Head II (1:09)
7. The Chemical Brothers – Piku (1:52)
8. Howie B – Hey Jack (UNKLE Metamorphosis Mix) (7:17)
9. Orbital – Funny Break (One Is Enough) (Plump DJ's Mix) (3:24)
10. Bushwacka! – Feel It (5:06)
11. Forme – Kick A Hole (Tigerstyle) (3:20)
12. Altitude – Night Stalker (Meat Katie Remix) (2:30)
13. Peter Dildo – Physical 2000 (1:55)
14. Green Velvet – La La Land (Extended Mix) (2:40)
15. Animated – Grab The Rope (FC Kahuna Mix) (2:03)
16. FC Kahuna – Mindset To Cycle (3:38)
17. Morel – True (The Faggot Is You) (FC Kahuna's Headstart Mix) (2:18)
18. Echomen – Thru 2 You (Bushwacka! Remix) (2:32)
19. Landmine – Fairytale (3:38)
20. Lazonby – Sacred Cycles (Medway Remix) (3:38)
21. Medway – Release (Original Mix) (2:54)
22. Bushwacka! – Healer (3:37)
23.1. Radiohead – Everything In Its Right Place (4:39)
23.2. UNKLE – Bonus Beats
Total length: 01:09:33
More information:

Лог создания рипа

Exact Audio Copy V0.99 prebeta 4 from 23. January 2008
EAC extraction logfile from 14. February 2009, 20:17
James Lavelle / Fabriclive 01
Used drive : _NEC DVD_RW ND-3540A Adapter: 1 ID: 0
Read mode : SecureUtilize accurate stream : YesDefeat audio cache : YesMake use of C2 pointers : No
Read offset correction : 48Overread into Lead-In and Lead-Out : NoFill up missing offset samples with silence : YesDelete leading and trailing silent blocks : NoNull samples used in CRC calculations : YesUsed interface : Native Win32 interface for Win NT & 2000Gap handling : Appended to previous track
Used output format : User Defined EncoderSelected bitrate : 1024 kBit/sQuality : HighAdd ID3 tag : NoCommand line compressor : F:\Applications\Audio Tools\EAC\Flac\flac.exeAdditional command line options : -8 -V -T "artist=%a" -T "title=%t" -T "album=%g" -T "date=%y" -T "tracknumber=%n" -T "genre=%m" %s
TOC of the extracted CD
Track | Start | Length | Start sector | End sector --------------------------------------------------------- 1 | 0:00.00 | 0:27.02 | 0 | 2026 2 | 0:27.02 | 1:17.68 | 2027 | 7869 3 | 1:44.70 | 3:49.52 | 7870 | 25096 4 | 5:34.47 | 1:11.28 | 25097 | 30449 5 | 6:46.00 | 4:39.40 | 30450 | 51414 6 | 11:25.40 | 1:09.30 | 51415 | 56619 7 | 12:34.70 | 1:52.60 | 56620 | 65079 8 | 14:27.55 | 7:17.30 | 65080 | 97884 9 | 21:45.10 | 3:24.10 | 97885 | 113194 10 | 25:09.20 | 5:06.15 | 113195 | 136159 11 | 30:15.35 | 3:20.35 | 136160 | 151194 12 | 33:35.70 | 2:30.27 | 151195 | 162471 13 | 36:06.22 | 1:55.55 | 162472 | 171151 14 | 38:02.02 | 2:40.25 | 171152 | 183176 15 | 40:42.27 | 2:03.68 | 183177 | 192469 16 | 42:46.20 | 3:38.42 | 192470 | 208861 17 | 46:24.62 | 2:18.18 | 208862 | 219229 18 | 48:43.05 | 2:32.50 | 219230 | 230679 19 | 51:15.55 | 3:38.05 | 230680 | 247034 20 | 54:53.60 | 3:38.05 | 247035 | 263389 21 | 58:31.65 | 2:54.27 | 263390 | 276466 22 | 61:26.17 | 3:37.25 | 276467 | 292766 23 | 65:03.42 | 4:39.23 | 292767 | 313714
Track 1
Filename G:\FLAC\James Lavelle - Fabriclive 01 - 01 - Intro- A Message To Our Sponsors.wav
Pre-gap length 0:00:02.00
Peak level 94.8 % Track quality 100.0 % Test CRC 7531B089 Copy CRC 7531B089 Track not present in AccurateRip database Copy OK
Track 2
Filename G:\FLAC\James Lavelle - Fabriclive 01 - 02 - People Get Ready - Rare Earth.wav
Peak level 96.3 % Track quality 100.0 % Test CRC 958F28A0 Copy CRC 958F28A0 Track not present in AccurateRip database Copy OK
Track 3
Filename G:\FLAC\James Lavelle - Fabriclive 01 - 03 - Circles - Psychonauts.wav
Peak level 97.8 % Track quality 100.0 % Test CRC 88AF8122 Copy CRC 88AF8122 Track not present in AccurateRip database Copy OK
Track 4
Filename G:\FLAC\James Lavelle - Fabriclive 01 - 04 - Organ Donor - DJ Shadow.wav
Peak level 97.9 % Track quality 99.8 % Test CRC 792CA33B Copy CRC 792CA33B Track not present in AccurateRip database Copy OK
Track 5
Filename G:\FLAC\James Lavelle - Fabriclive 01 - 05 - Divine Intervention - Divine Styler & DJ Shadow.wav
Peak level 99.8 % Track quality 100.0 % Test CRC FE4DBED0 Copy CRC FE4DBED0 Track not present in AccurateRip database Copy OK
Track 6
Filename G:\FLAC\James Lavelle - Fabriclive 01 - 06 - Broken Head II - South.wav
Peak level 95.6 % Track quality 99.8 % Test CRC 5CECF07C Copy CRC 5CECF07C Track not present in AccurateRip database Copy OK
Track 7
Filename G:\FLAC\James Lavelle - Fabriclive 01 - 07 - Piku - The Chemical Brothers.wav
Peak level 95.7 % Track quality 100.0 % Test CRC A849C1FF Copy CRC A849C1FF Track not present in AccurateRip database Copy OK
Track 8
Filename G:\FLAC\James Lavelle - Fabriclive 01 - 08 - Hey Jack - Howie B.wav
Peak level 97.5 % Track quality 100.0 % Test CRC 11C0EA46 Copy CRC 11C0EA46 Track not present in AccurateRip database Copy OK
Track 9
Filename G:\FLAC\James Lavelle - Fabriclive 01 - 09 - Funny Break (One Is Enough) - Orbital.wav
Peak level 98.0 % Track quality 100.0 % Test CRC 39A77619 Copy CRC 39A77619 Track not present in AccurateRip database Copy OK
Track 10
Filename G:\FLAC\James Lavelle - Fabriclive 01 - 10 - Feel It - Bushwacka!.wav
Peak level 100.0 % Track quality 100.0 % Test CRC 8B1C6734 Copy CRC 8B1C6734 Track not present in AccurateRip database Copy OK
Track 11
Filename G:\FLAC\James Lavelle - Fabriclive 01 - 11 - Kick A Hole (Tigerstyle) - Forme.wav
Peak level 99.6 % Track quality 100.0 % Test CRC D7C21427 Copy CRC D7C21427 Track not present in AccurateRip database Copy OK
Track 12
Filename G:\FLAC\James Lavelle - Fabriclive 01 - 12 - Night Stalker - Altitude.wav
Peak level 96.5 % Track quality 100.0 % Test CRC 4D99C120 Copy CRC 4D99C120 Track not present in AccurateRip database Copy OK
Track 13
Filename G:\FLAC\James Lavelle - Fabriclive 01 - 13 - Physical 2000 - Peter Dildo.wav
Peak level 97.1 % Track quality 100.0 % Test CRC 4824BA91 Copy CRC 4824BA91 Track not present in AccurateRip database Copy OK
Track 14
Filename G:\FLAC\James Lavelle - Fabriclive 01 - 14 - La La Land - Green Velvet.wav
Peak level 96.9 % Track quality 100.0 % Test CRC 1F374616 Copy CRC 1F374616 Track not present in AccurateRip database Copy OK
Track 15
Filename G:\FLAC\James Lavelle - Fabriclive 01 - 15 - Grab The Rope - Animated.wav
Peak level 98.5 % Track quality 100.0 % Test CRC 694486EC Copy CRC 694486EC Track not present in AccurateRip database Copy OK
Track 16
Filename G:\FLAC\James Lavelle - Fabriclive 01 - 16 - Mindset To Cycle - FC Kahuna.wav
Peak level 97.1 % Track quality 100.0 % Test CRC 849BB439 Copy CRC 849BB439 Track not present in AccurateRip database Copy OK
Track 17
Filename G:\FLAC\James Lavelle - Fabriclive 01 - 17 - True (The Faggot Is You) - Morel.wav
Peak level 97.5 % Track quality 100.0 % Test CRC 452B8294 Copy CRC 452B8294 Track not present in AccurateRip database Copy OK
Track 18
Filename G:\FLAC\James Lavelle - Fabriclive 01 - 18 - Thru 2 You - Echomen.wav
Peak level 96.8 % Track quality 100.0 % Test CRC E2CF4F0B Copy CRC E2CF4F0B Track not present in AccurateRip database Copy OK
Track 19
Filename G:\FLAC\James Lavelle - Fabriclive 01 - 19 - Fairytale - Landmine.wav
Peak level 96.6 % Track quality 100.0 % Test CRC A2FCB80F Copy CRC A2FCB80F Track not present in AccurateRip database Copy OK
Track 20
Filename G:\FLAC\James Lavelle - Fabriclive 01 - 20 - Sacred Cycles - Lazonby.wav
Peak level 96.8 % Track quality 100.0 % Test CRC 0EC62EFB Copy CRC 0EC62EFB Track not present in AccurateRip database Copy OK
Track 21
Filename G:\FLAC\James Lavelle - Fabriclive 01 - 21 - Release - Medway.wav
Peak level 100.0 % Track quality 97.0 % Test CRC 31899F3F Copy CRC 31899F3F Track not present in AccurateRip database Copy OK
Track 22
Filename G:\FLAC\James Lavelle - Fabriclive 01 - 22 - Healer - Bushwacka!.wav
Peak level 100.0 % Track quality 100.0 % Test CRC 79662854 Copy CRC 79662854 Track not present in AccurateRip database Copy OK
Track 23
Filename G:\FLAC\James Lavelle - Fabriclive 01 - 23 - Everything In Its Right Place - Radiohead.wav
Peak level 97.1 % Track quality 99.9 % Test CRC 35854585 Copy CRC 35854585 Track not present in AccurateRip database Copy OK
None of the tracks are present in the AccurateRip database
No errors occurred
End of status report

Содержание индексной карты (.CUE)

REM GENRE DanceREM DATE 2001REM DISCID 60105617REM COMMENT "ExactAudioCopy v0.99pb4"PERFORMER "Various Artists"TITLE "Fabriclive 01 - James Lavelle"FILE "01. James Lavelle - A Message To Our Sponsors (Intro).wav" WAVE TRACK 01 AUDIO PERFORMER "James Lavelle" TITLE "A Message To Our Sponsors (Intro)" INDEX 01 00:00:00FILE "02. Rare Earth - People Get Ready.wav" WAVE TRACK 02 AUDIO PERFORMER "Rare Earth" TITLE "People Get Ready" INDEX 01 00:00:00FILE "03. Psychonauts - Circles.wav" WAVE TRACK 03 AUDIO PERFORMER "Psychonauts" TITLE "Circles" INDEX 01 00:00:00FILE "04. DJ Shadow - Organ Donor.wav" WAVE TRACK 04 AUDIO PERFORMER "Dj Shadow" TITLE "Organ Donor" INDEX 01 00:00:00FILE "05. Divine Styler & Dj Shadow - Divine Intervention.wav" WAVE TRACK 05 AUDIO PERFORMER "Divine Styler & DJ Shadow" TITLE "Divine Intervention" INDEX 01 00:00:00FILE "06. South - Broken Head II.wav" WAVE TRACK 06 AUDIO PERFORMER "South" TITLE "Broken Head II" INDEX 01 00:00:00FILE "07. The Chemical Brothers - Piku.wav" WAVE TRACK 07 AUDIO PERFORMER "The Chemical Brothers" TITLE "Piku" INDEX 01 00:00:00FILE "08. Howie B - Hey Jack.wav" WAVE TRACK 08 AUDIO PERFORMER "Howie B" TITLE "Hey Jack" INDEX 01 00:00:00FILE "09. Orbital - Funny Break (One Is Enough).wav" WAVE TRACK 09 AUDIO PERFORMER "Orbital" TITLE "Funny Break (One Is Enough)" INDEX 01 00:00:00FILE "10. Bushwacka! - Feel It.wav" WAVE TRACK 10 AUDIO PERFORMER "Bushwacka!" TITLE "Feel It" INDEX 01 00:00:00FILE "11. Forme - Kick A Hole (Tigerstyle).wav" WAVE TRACK 11 AUDIO PERFORMER "Forme" TITLE "Kick A Hole (Tigerstyle)" INDEX 01 00:00:00FILE "12. Altitude - Night Stalker.wav" WAVE TRACK 12 AUDIO PERFORMER "Altitude" TITLE "Night Stalker" INDEX 01 00:00:00FILE "13. Peter Dildo - Physical 2000.wav" WAVE TRACK 13 AUDIO PERFORMER "Peter Dildo" TITLE "Physical 2000" INDEX 01 00:00:00FILE "14. Green Velvet - La La Land.wav" WAVE TRACK 14 AUDIO PERFORMER "Green Velvet" TITLE "La La Land" INDEX 01 00:00:00FILE "15. Animated - Grab The Rope.wav" WAVE TRACK 15 AUDIO PERFORMER "Animated" TITLE "Grab The Rope" INDEX 01 00:00:00FILE "16. FC Kahuna - Mindset To Cycle.wav" WAVE TRACK 16 AUDIO PERFORMER "FC Kahuna" TITLE "Mindset To Cycle" INDEX 01 00:00:00FILE "17. Morel - True (The Faggot Is You).wav" WAVE TRACK 17 AUDIO PERFORMER "Morel" TITLE "True (The Faggot Is You)" INDEX 01 00:00:00FILE "18. Echomen - Thru 2 You.wav" WAVE TRACK 18 AUDIO PERFORMER "Echomen" TITLE "Thru 2 You" INDEX 01 00:00:00FILE "19. Landmine - Fairytale.wav" WAVE TRACK 19 AUDIO PERFORMER "Landmine" TITLE "Fairytale" INDEX 01 00:00:00FILE "20. Lazonby - Sacred Cycles.wav" WAVE TRACK 20 AUDIO PERFORMER "Lazonby" TITLE "Sacred Cycles" INDEX 01 00:00:00FILE "21. Medway - Release.wav" WAVE TRACK 21 AUDIO PERFORMER "Medway" TITLE "Release" INDEX 01 00:00:00FILE "22. Bushwacka! - Healer.wav" WAVE TRACK 22 AUDIO PERFORMER "Bushwacka!" TITLE "Healer" INDEX 01 00:00:00FILE "23. Radiohead-UNKLE - Everything In Its Right Place-Bonus Beats.wav" WAVE TRACK 23 AUDIO PERFORMER "Radiohead/UNKLE" TITLE "Everything In Its Right Place/Bonus Beats" INDEX 01 00:00:00

Лог проверки качества

-----------------------
DON'T MODIFY THIS FILE
-----------------------
PERFORMER: auCDtect Task Manager, ver. 1.6.0 RC1 build 1.6.0.1Copyright (c) 2008-2010 y-soft. All rights reservedhttp://y-soft.org
ANALYZER: auCDtect: CD records authenticity detector, version 0.8.2Copyright (c) 2004 Oleg Berngardt. All rights reserved.Copyright (c) 2004 Alexander Djourik. All rights reserved.
FILE: 23. Radiohead-UNKLE - Everything In Its Right Place-Bonus Beats.flac Size: 28533384 Hash: A5A491AD7CB328A9E0AADB799A226B0B Accuracy: -m0 Conclusion: CDDA 100% Signature: C906C5F3D224D4900189F6D3A3053235AACCCF6DFILE: 22. Bushwacka! - Healer.flac Size: 27110213 Hash: 983404E412655BED8DE359989459CC64 Accuracy: -m0 Conclusion: CDDA 99% Signature: 001C3BEF960E2F3CA5C92E5158EDEECAEE5880BEFILE: 21. Medway - Release.flac Size: 21656500 Hash: 3F1D7D3D2A28DEBFED36E729B243AABD Accuracy: -m0 Conclusion: CDDA 100% Signature: BCB03FE6378B11BE98EC2A787C63A9747AE4F4D8FILE: 20. Lazonby - Sacred Cycles.flac Size: 25860446 Hash: 5223264E19A979E4003842691E1FDC32 Accuracy: -m0 Conclusion: CDDA 100% Signature: C2AB3F9C311CCC9FFAC5CE6A1921C71AC1DEE56FFILE: 19. Landmine - Fairytale.flac Size: 25894525 Hash: 64CD2ACF60C3A7AD7AF3D892A384F278 Accuracy: -m0 Conclusion: CDDA 100% Signature: 282499B2F54649FC1BF1EBAEDD0CA17FBBBFEB5EFILE: 18. Echomen - Thru 2 You.flac Size: 16969476 Hash: 416F2BDB2CF334973235B9DC66AE2D50 Accuracy: -m0 Conclusion: CDDA 100% Signature: C88AAC5D837C7034A8A86AF2BF5EAD9CA93B01D4FILE: 17. Morel - True (The Faggot Is You).flac Size: 16357500 Hash: 132F7EDDD4810C71469A38D072165F47 Accuracy: -m0 Conclusion: CDDA 100% Signature: D96F6964215D4B92A7A23BD09C6D2E0B611D0A35FILE: 16. FC Kahuna - Mindset To Cycle.flac Size: 24615940 Hash: 514CE1472EF8B6136F2FDBC6A01148A6 Accuracy: -m0 Conclusion: CDDA 100% Signature: 4AD7BCD59B9C5D6CE56B7B5B8524655C66849E67FILE: 15. Animated - Grab The Rope.flac Size: 15564564 Hash: 44185AE7E6FCB80A6105DDE58DCE8707 Accuracy: -m0 Conclusion: CDDA 100% Signature: 62F38623BD4F816B682EC7C6D7DDB1039044ACFEFILE: 14. Green Velvet - La La Land.flac Size: 18251385 Hash: 232B8DA1EC24E03A2843ADA430392072 Accuracy: -m0 Conclusion: CDDA 100% Signature: D27B5293FC52BDB017E69C59E1BB84609C73C55CFILE: 13. Peter Dildo - Physical 2000.flac Size: 14513167 Hash: 7237FCD8DCD946AD192717C9D3313462 Accuracy: -m0 Conclusion: CDDA 100% Signature: 9EC9F32E6D1B0EA9C5C05301C714A061B8C3E841FILE: 12. Altitude - Night Stalker.flac Size: 17529648 Hash: 1B1609D4864690D0B44841F7CCDBAEA6 Accuracy: -m0 Conclusion: CDDA 100% Signature: D17F8392D61B2422A9A7256C4BEAC21D002C1186FILE: 11. Forme - Kick A Hole (Tigerstyle).flac Size: 21652694 Hash: F12665D51BDEFB8109C42C19DA1A5FD0 Accuracy: -m0 Conclusion: CDDA 100% Signature: E3DBACC4019F9A88463F19C307014DDCBC095CEBFILE: 10. Bushwacka! - Feel It.flac Size: 37000430 Hash: A29921AAFB0584A52127B7AE8FAE5349 Accuracy: -m0 Conclusion: CDDA 100% Signature: 3DEF81C5ADED8F25468C7AF18D38C1C34BE5C6A0FILE: 09. Orbital - Funny Break (One Is Enough).flac Size: 22386177 Hash: 8E131BCC320455C58B8CA101D51BB50B Accuracy: -m0 Conclusion: CDDA 100% Signature: 6DCF3E87907E7FA2314CB083DBBE31C89CB8D66DFILE: 08. Howie B - Hey Jack.flac Size: 51268398 Hash: 27B37495B901080499797A1579BE431F Accuracy: -m0 Conclusion: CDDA 100% Signature: CB52B175CFC0CA3B350E943A38B2BC37318C7E57FILE: 07. The Chemical Brothers - Piku.flac Size: 13061866 Hash: 902ADCA45566A03735A02C246FC75D05 Accuracy: -m0 Conclusion: CDDA 100% Signature: BB07B1803E2519F28CF27F6F5D547A0E8BBEAD92FILE: 06. South - Broken Head II.flac Size: 7913595 Hash: D2030EB95804953BDC7D0D6143BF438D Accuracy: -m0 Conclusion: CDDA 99% Signature: FD269528A681AD5254EF69B1BD01D92B56F3079FFILE: 05. Divine Styler & Dj Shadow - Divine Intervention.flac Size: 31979411 Hash: 3399E1500E558F163F96DD300222FE63 Accuracy: -m0 Conclusion: CDDA 100% Signature: FC1540B3E02CD54CEF3122592DADAC490EEA9DE4FILE: 04. DJ Shadow - Organ Donor.flac Size: 7314967 Hash: BBED11A07FB59173CDAA592696AD716D Accuracy: -m0 Conclusion: CDDA 100% Signature: 4593CB7D33DD4853FB3ED68AA07B717D2478696BFILE: 03. Psychonauts - Circles.flac Size: 26595503 Hash: 2C28285A443EDEACEFB97F9948F3BF6B Accuracy: -m0 Conclusion: CDDA 100% Signature: 6E5791FFB2329ED1D15068C3185591201D9B7E8BFILE: 02. Rare Earth - People Get Ready.flac Size: 9274920 Hash: E2278A9E9022209882067B1021AB2E3F Accuracy: -m0 Conclusion: CDDA 100% Signature: F9A73B4464A5EBD11989278A921BE9B9384B0EB3FILE: 01. James Lavelle - A Message To Our Sponsors (Intro).flac Size: 2318683 Hash: 231D8065F6AAA579538CE0F0BA6D3D2A Accuracy: -m0 Conclusion: CDDA 100% Signature: F4BD4A779A1CC0271894859CEEE8ABC981817F96

Замер динамического диапазона

foobar2000 1.3.5 / Замер динамического диапазона (DR) 1.1.1Дата отчёта: 2015-03-08 01:02:26
--------------------------------------------------------------------------------Анализ: Altitude / Fabriclive 01 - James Lavelle (1) Animated / Fabriclive 01 - James Lavelle (2) Bushwacka! / Fabriclive 01 - James Lavelle (3-4) Divine Styler & DJ Shadow / Fabriclive 01 - James Lavelle (5) Dj Shadow / Fabriclive 01 - James Lavelle (6) Echomen / Fabriclive 01 - James Lavelle (7) FC Kahuna / Fabriclive 01 - James Lavelle (8) Forme / Fabriclive 01 - James Lavelle (9) Green Velvet / Fabriclive 01 - James Lavelle (10) Howie B / Fabriclive 01 - James Lavelle (11) James Lavelle / Fabriclive 01 - James Lavelle (12) Landmine / Fabriclive 01 - James Lavelle (13) Lazonby / Fabriclive 01 - James Lavelle (14) Medway / Fabriclive 01 - James Lavelle (15) Morel / Fabriclive 01 - James Lavelle (16) Orbital / Fabriclive 01 - James Lavelle (17) Peter Dildo / Fabriclive 01 - James Lavelle (18) Psychonauts / Fabriclive 01 - James Lavelle (19) Radiohead/UNKLE / Fabriclive 01 - James Lavelle (20) Rare Earth / Fabriclive 01 - James Lavelle (21) South / Fabriclive 01 - James Lavelle (22) The Chemical Brothers / Fabriclive 01 - James Lavelle (23)--------------------------------------------------------------------------------
DR Пики RMS Продолжительность трека--------------------------------------------------------------------------------DR9 -0.30 дБ -10.63 дБ 2:30 12-Night StalkerDR8 -0.13 дБ -9.79 дБ 2:04 15-Grab The RopeDR8 0.00 дБ -9.77 дБ 5:06 10-Feel ItDR7 0.00 дБ -8.59 дБ 3:37 22-HealerDR8 -0.01 дБ -9.33 дБ 4:40 05-Divine InterventionDR9 -0.18 дБ -10.91 дБ 1:11 04-Organ DonorDR9 -0.28 дБ -10.81 дБ 2:33 18-Thru 2 YouDR9 -0.25 дБ -10.61 дБ 3:39 16-Mindset To CycleDR8 -0.03 дБ -9.88 дБ 3:20 11-Kick A Hole (Tigerstyle)DR8 -0.27 дБ -8.85 дБ 2:40 14-La La LandDR9 -0.22 дБ -10.28 дБ 7:17 08-Hey JackDR10 -0.46 дБ -13.91 дБ 0:27 01-A Message To Our Sponsors (Intro)DR8 -0.30 дБ -8.80 дБ 3:38 19-FairytaleDR9 -0.28 дБ -10.32 дБ 3:38 20-Sacred CyclesDR9 0.00 дБ -9.30 дБ 2:54 21-ReleaseDR8 -0.22 дБ -9.88 дБ 2:18 17-True (The Faggot Is You)DR9 -0.17 дБ -10.55 дБ 3:24 09-Funny Break (One Is Enough)DR9 -0.25 дБ -10.52 дБ 1:56 13-Physical 2000DR8 -0.18 дБ -8.83 дБ 3:50 03-CirclesDR7 -0.25 дБ -8.93 дБ 4:39 23-Everything In Its Right Place/Bonus BeatsDR9 -0.33 дБ -11.77 дБ 1:18 02-People Get ReadyDR9 -0.39 дБ -10.18 дБ 1:09 06-Broken Head IIDR9 -0.38 дБ -10.51 дБ 1:53 07-Piku--------------------------------------------------------------------------------
Количество треков: 23Реальные значения DR: DR9
Частота: 44100 ГцКаналов: 2Разрядность: 16Битрейт: 907 кбит/сКодек: FLAC================================================================================

Fabriclive 02 - Ali B (2002):

Label/Cat#: Fabric (London) – FABRIC4, Fabric (London) – Fabric4
Country: UK
Year: 2002
Genre: Electronic
Style: Breaks
Format: CD, Mixed, Metal Case, Cardboard Sleeve
Tracklist
1. Ali B – Intro (0:21)
2. DJ Love – Underground Funk (3:29)
3. Red Tape – Worldwide (3:14)
4. Shakedown – Get Down (4:26)
5. Bassbin Twins – Number 2 (3:14)
6. Mike & Charlie – Body Rock (2:49)
7. DJ Technique – My Definiton (Lee Coombs Acid House Breaks Mix) (2:39)
8. The Hotheadz – Let Me See If You Can Dance (1:26)
9. DJ Spice – Groove Operator (2:24)
10. Lee Coombs – Sky Juice (3:47)
11. Outcast – Criminals (2:06)
12. Dreadzone – Believing In It (Drumattic Twins Remix) (3:48)
13. Tony Faline – Feel The Funk (4:54)
14. Laidback – God Can't Stop (4:12)
15. DJ Icey – Surreal (4:10)
16. PMT – Gyromancer (3:38)
17. DJ Who – Feel The Bass (1:58)
18. Plump DJs – Big Groovy Fucker (5:21)
19. Bassbin Twins – ESW (2:33)
20. Jammin' – Hold On (2:33)
21. Ils – Next Level (5:14)
22. Mr. Scruff – Night Time (5:25)
Total length: 01:13:41
More information:

Лог создания рипа

Exact Audio Copy V0.99 prebeta 4 from 23. January 2008
EAC extraction logfile from 14. February 2009, 19:01
Ali B / Fabric Live 02
Used drive : _NEC DVD_RW ND-3540A Adapter: 1 ID: 0
Read mode : SecureUtilize accurate stream : YesDefeat audio cache : YesMake use of C2 pointers : No
Read offset correction : 48Overread into Lead-In and Lead-Out : NoFill up missing offset samples with silence : YesDelete leading and trailing silent blocks : NoNull samples used in CRC calculations : YesUsed interface : Native Win32 interface for Win NT & 2000Gap handling : Appended to previous track
Used output format : User Defined EncoderSelected bitrate : 1024 kBit/sQuality : HighAdd ID3 tag : NoCommand line compressor : F:\Applications\Audio Tools\EAC\Flac\flac.exeAdditional command line options : -8 -V -T "artist=%a" -T "title=%t" -T "album=%g" -T "date=%y" -T "tracknumber=%n" -T "genre=%m" %s
TOC of the extracted CD
Track | Start | Length | Start sector | End sector --------------------------------------------------------- 1 | 0:00.00 | 0:21.22 | 0 | 1596 2 | 0:21.22 | 3:29.73 | 1597 | 17344 3 | 3:51.20 | 3:14.72 | 17345 | 31966 4 | 7:06.17 | 4:26.18 | 31967 | 51934 5 | 11:32.35 | 3:14.25 | 51935 | 66509 6 | 14:46.60 | 2:49.32 | 66510 | 79216 7 | 17:36.17 | 2:39.35 | 79217 | 91176 8 | 20:15.52 | 1:26.60 | 91177 | 97686 9 | 21:42.37 | 2:24.50 | 97687 | 108536 10 | 24:07.12 | 3:47.10 | 108537 | 125571 11 | 27:54.22 | 2:06.68 | 125572 | 135089 12 | 30:01.15 | 3:48.65 | 135090 | 152254 13 | 33:50.05 | 4:54.57 | 152255 | 174361 14 | 38:44.62 | 4:12.25 | 174362 | 193286 15 | 42:57.12 | 4:10.05 | 193287 | 212041 16 | 47:07.17 | 3:38.55 | 212042 | 228446 17 | 50:45.72 | 1:58.65 | 228447 | 237361 18 | 52:44.62 | 5:21.43 | 237362 | 261479 19 | 58:06.30 | 2:33.37 | 261480 | 272991 20 | 60:39.67 | 2:33.25 | 272992 | 284491 21 | 63:13.17 | 5:14.43 | 284492 | 308084 22 | 68:27.60 | 5:25.42 | 308085 | 332501
Track 1
Filename G:\FLAC\Ali B - Fabric Live 02 - 01 - Intro.wav
Pre-gap length 0:00:02.00
Peak level 95.2 % Track quality 100.0 % Test CRC 45C31368 Copy CRC 45C31368 Accurately ripped (confidence 2) [11E6520F] Copy OK
Track 2
Filename G:\FLAC\Ali B - Fabric Live 02 - 02 - DJ Love - Underground funk.wav
Peak level 96.9 % Track quality 100.0 % Test CRC FBF7B8A2 Copy CRC FBF7B8A2 Accurately ripped (confidence 2) [4DCAB45A] Copy OK
Track 3
Filename G:\FLAC\Ali B - Fabric Live 02 - 03 - Red Tape - Worldwide.wav
Peak level 98.1 % Track quality 100.0 % Test CRC DF9592F8 Copy CRC DF9592F8 Accurately ripped (confidence 2) [3C6793B1] Copy OK
Track 4
Filename G:\FLAC\Ali B - Fabric Live 02 - 04 - Shakedown - Get down.wav
Peak level 96.9 % Track quality 100.0 % Test CRC 8428A481 Copy CRC 8428A481 Accurately ripped (confidence 2) [13544C81] Copy OK
Track 5
Filename G:\FLAC\Ali B - Fabric Live 02 - 05 - Bassbin Twins - Number 2.wav
Peak level 99.9 % Track quality 100.0 % Test CRC ABF74B5C Copy CRC ABF74B5C Accurately ripped (confidence 2) [4479D14C] Copy OK
Track 6
Filename G:\FLAC\Ali B - Fabric Live 02 - 06 - Mike & Charlie - Body rock.wav
Peak level 99.9 % Track quality 100.0 % Test CRC 5AAB4B5E Copy CRC 5AAB4B5E Accurately ripped (confidence 2) [754B76C1] Copy OK
Track 7
Filename G:\FLAC\Ali B - Fabric Live 02 - 07 - DJ Technique - My Definition.wav
Peak level 97.9 % Track quality 100.0 % Test CRC 50F9C932 Copy CRC 50F9C932 Accurately ripped (confidence 2) [2496B20E] Copy OK
Track 8
Filename G:\FLAC\Ali B - Fabric Live 02 - 08 - Huda Hudia & DJ Volume - Let me see if you can dance.wav
Peak level 96.8 % Track quality 100.0 % Test CRC FFD211DE Copy CRC FFD211DE Accurately ripped (confidence 2) [C4A7B5BD] Copy OK
Track 9
Filename G:\FLAC\Ali B - Fabric Live 02 - 09 - DJ Spice - Groove operator.wav
Peak level 97.6 % Track quality 100.0 % Test CRC 39774B55 Copy CRC 39774B55 Accurately ripped (confidence 2) [CDA3449B] Copy OK
Track 10
Filename G:\FLAC\Ali B - Fabric Live 02 - 10 - Lee Coombs - Sky juice.wav
Peak level 97.0 % Track quality 99.9 % Test CRC 7BFD86E5 Copy CRC 7BFD86E5 Accurately ripped (confidence 2) [C361075D] Copy OK
Track 11
Filename G:\FLAC\Ali B - Fabric Live 02 - 11 - Outcast - Criminals.wav
Peak level 96.8 % Track quality 100.0 % Test CRC 4640AA55 Copy CRC 4640AA55 Accurately ripped (confidence 2) [C4B3A423] Copy OK
Track 12
Filename G:\FLAC\Ali B - Fabric Live 02 - 12 - Dreadzone - Believing in it.wav
Peak level 98.6 % Track quality 100.0 % Test CRC 9C722473 Copy CRC 9C722473 Accurately ripped (confidence 2) [1650796A] Copy OK
Track 13
Filename G:\FLAC\Ali B - Fabric Live 02 - 13 - Tony Faline - Feel the funk.wav
Peak level 97.6 % Track quality 100.0 % Test CRC 36AE3623 Copy CRC 36AE3623 Accurately ripped (confidence 2) [75965182] Copy OK
Track 14
Filename G:\FLAC\Ali B - Fabric Live 02 - 14 - Laidback - God can't stop.wav
Peak level 97.2 % Track quality 99.9 % Test CRC D7C742FA Copy CRC D7C742FA Accurately ripped (confidence 2) [C26398F7] Copy OK
Track 15
Filename G:\FLAC\Ali B - Fabric Live 02 - 15 - DJ Icey - Surreal.wav
Peak level 98.1 % Track quality 99.9 % Test CRC 3A483D58 Copy CRC 3A483D58 Accurately ripped (confidence 2) [0DCD25DA] Copy OK
Track 16
Filename G:\FLAC\Ali B - Fabric Live 02 - 16 - PMT - Gyromancer.wav
Peak level 98.5 % Track quality 100.0 % Test CRC 8F4B8B88 Copy CRC 8F4B8B88 Accurately ripped (confidence 2) [CA604CDB] Copy OK
Track 17
Filename G:\FLAC\Ali B - Fabric Live 02 - 17 - DJ Who - Feel the bass.wav
Peak level 97.2 % Track quality 99.9 % Test CRC 085A5285 Copy CRC 085A5285 Accurately ripped (confidence 2) [DAD444B0] Copy OK
Track 18
Filename G:\FLAC\Ali B - Fabric Live 02 - 18 - Plump DJs - Big groovy fucker.wav
Peak level 97.9 % Track quality 100.0 % Test CRC 924C4729 Copy CRC 924C4729 Accurately ripped (confidence 2) [B96D60D9] Copy OK
Track 19
Filename G:\FLAC\Ali B - Fabric Live 02 - 19 - Bassbin Twins - ESW.wav
Peak level 97.6 % Track quality 100.0 % Test CRC 77805EEE Copy CRC 77805EEE Accurately ripped (confidence 2) [D2C7DB4E] Copy OK
Track 20
Filename G:\FLAC\Ali B - Fabric Live 02 - 20 - Jammin - Hold on.wav
Peak level 97.9 % Track quality 100.0 % Test CRC 9BDA6D86 Copy CRC 9BDA6D86 Accurately ripped (confidence 2) [9DEC739F] Copy OK
Track 21
Filename G:\FLAC\Ali B - Fabric Live 02 - 21 - IIs - Next level.wav
Peak level 97.9 % Track quality 100.0 % Test CRC 558F4005 Copy CRC 558F4005 Accurately ripped (confidence 2) [CF48418A] Copy OK
Track 22
Filename G:\FLAC\Ali B - Fabric Live 02 - 22 - Mr Scruff - Night time.wav
Peak level 98.0 % Track quality 100.0 % Test CRC 970CBF25 Copy CRC 970CBF25 Accurately ripped (confidence 2) [685F21C7] Copy OK
All tracks accurately ripped
No errors occurred
End of status report

Содержание индексной карты (.CUE)

REM GENRE Lo-FiREM DATE 2002REM DISCID 45115116REM COMMENT "ExactAudioCopy v0.99pb4"PERFORMER "Various Artists"TITLE "Fabriclive 02 - Ali B"FILE "01. Ali B - Intro.wav" WAVE TRACK 01 AUDIO PERFORMER "Ali B" TITLE "Intro" INDEX 01 00:00:00FILE "02. Dj Love - Underground funk.wav" WAVE TRACK 02 AUDIO PERFORMER "Dj Love" TITLE "Underground Funk" INDEX 01 00:00:00FILE "03. Red Tape - Worldwide.wav" WAVE TRACK 03 AUDIO PERFORMER "Ali B" TITLE "Worldwide" INDEX 01 00:00:00FILE "04. Shakedown - Get Down.wav" WAVE TRACK 04 AUDIO PERFORMER "Shakedown" TITLE "Get Down" INDEX 01 00:00:00FILE "05. Bassbin Twins - Number 2.wav" WAVE TRACK 05 AUDIO PERFORMER "Bassbin Twins" TITLE "Number 2" INDEX 01 00:00:00FILE "06. Mike & Charlie - Body Rock.wav" WAVE TRACK 06 AUDIO PERFORMER "Mike & Charlie" TITLE "Body Rock" INDEX 01 00:00:00FILE "07. Dj Technique - My Definition (Lee Coombs Acid House Breaks Mix).wav" WAVE TRACK 07 AUDIO PERFORMER "DJ Technique" TITLE "My Definition (Lee Coombs Acid House Breaks Mix)" INDEX 01 00:00:00FILE "08. Huda Hudia & Dj Volume - Let Me See If You Can Dance.wav" WAVE TRACK 08 AUDIO PERFORMER "Huda Hudia" TITLE "Let Me See If You Can Dance" INDEX 01 00:00:00FILE "09. Dj Spice - Groove Operator.wav" WAVE TRACK 09 AUDIO PERFORMER "Dj Spice" TITLE "Groove Operator" INDEX 01 00:00:00FILE "10. Lee Coombs - Sky Juice.wav" WAVE TRACK 10 AUDIO PERFORMER "Lee Coombs" TITLE "Sky Juice" INDEX 01 00:00:00FILE "11. Outcast - Criminals.wav" WAVE TRACK 11 AUDIO PERFORMER "OutKast" TITLE "Criminals" INDEX 01 00:00:00FILE "12. Dreadzone - Believing In It.wav" WAVE TRACK 12 AUDIO PERFORMER "Dreadzone" TITLE "Believing in It (Drumattic Twins Mix)" INDEX 01 00:00:00FILE "13. Tony Faline - Feel The Funk.wav" WAVE TRACK 13 AUDIO PERFORMER "Tony Faline" TITLE "Feel The Funk" INDEX 01 00:00:00FILE "14. Laidback - God Can't Stop.wav" WAVE TRACK 14 AUDIO PERFORMER "Laidback" TITLE "God Can't Stop" INDEX 01 00:00:00FILE "15. Dj Icey - Surreal.wav" WAVE TRACK 15 AUDIO PERFORMER "Dj Icey" TITLE "Surreal" INDEX 01 00:00:00FILE "16. PMT - Gyromancer.wav" WAVE TRACK 16 AUDIO PERFORMER "PMT" TITLE "Gyromancer" INDEX 01 00:00:00FILE "17. Dj Who - Feel The Bass.wav" WAVE TRACK 17 AUDIO PERFORMER "Dj Who" TITLE "Feel The Bass" INDEX 01 00:00:00FILE "18. Plump Dj's - Big Groovy Fucker.wav" WAVE TRACK 18 AUDIO PERFORMER "Plump DJs" TITLE "Big Groovy Fucker" INDEX 01 00:00:00FILE "19. Bassbin Twins - ESW.wav" WAVE TRACK 19 AUDIO PERFORMER "Bassbin Twins" TITLE "ESW" INDEX 01 00:00:00FILE "20. Jammin - Hold On.wav" WAVE TRACK 20 AUDIO PERFORMER "Jammin'" TITLE "Hold On" INDEX 01 00:00:00FILE "21. Ils - Next Level.wav" WAVE TRACK 21 AUDIO PERFORMER "Ils" TITLE "Next Level" INDEX 01 00:00:00FILE "22. Mr. Scruff - Night Time.wav" WAVE TRACK 22 AUDIO PERFORMER "Mr. Scruff" TITLE "Night Time" INDEX 01 00:00:00

Лог проверки качества

-----------------------
DON'T MODIFY THIS FILE
-----------------------
PERFORMER: auCDtect Task Manager, ver. 1.6.0 RC1 build 1.6.0.1Copyright (c) 2008-2010 y-soft. All rights reservedhttp://y-soft.org
ANALYZER: auCDtect: CD records authenticity detector, version 0.8.2Copyright (c) 2004 Oleg Berngardt. All rights reserved.Copyright (c) 2004 Alexander Djourik. All rights reserved.
FILE: 22. Mr. Scruff - Night Time.flac Size: 29732894 Hash: 7F223CD8D7BD2236F73E233022E3D904 Accuracy: -m0 Conclusion: CDDA 99% Signature: 38EB179880D328C3BE922E06F098B8395805E1E8FILE: 21. Ils - Next Level.flac Size: 32829437 Hash: 53BE65EE55B105C4E8B1BD081B8FBCE0 Accuracy: -m0 Conclusion: CDDA 100% Signature: 1C253945D731ECB6F82A74C4062FFBDE1B46CDACFILE: 20. Jammin - Hold On.flac Size: 17925513 Hash: DAD2F94DE9B0899757D2E7E37FDDE1D8 Accuracy: -m0 Conclusion: CDDA 100% Signature: AD372C8F66B710F9D4D2590872171E6696BBF101FILE: 19. Bassbin Twins - ESW.flac Size: 18957462 Hash: 3FD2748736A289D03E0181512849B4F4 Accuracy: -m0 Conclusion: CDDA 100% Signature: F0AB907E68B0D41CF2F1051E8891EB87587C31FAFILE: 18. Plump Dj's - Big Groovy Fucker.flac Size: 37882678 Hash: BD05451F2CDAF0BFA7C6E2864D1B5F92 Accuracy: -m0 Conclusion: CDDA 100% Signature: 0897F65D5DA5FB3B285A342A7B36D342699F1274FILE: 17. Dj Who - Feel The Bass.flac Size: 13294129 Hash: 93ED68205E2341E8D275098B4018B255 Accuracy: -m0 Conclusion: CDDA 100% Signature: 70CDBCB02BAFE638E12C1B54305DCCDE01933347FILE: 16. PMT - Gyromancer.flac Size: 25713285 Hash: A6EABBD73112BC55E5E2CB6A6BCD99A5 Accuracy: -m0 Conclusion: CDDA 100% Signature: 65FF3AF4AD1B63ACDB7162788A188FCA6BA748B7FILE: 15. Dj Icey - Surreal.flac Size: 29897205 Hash: 0A377596C07D03145C9F4013BAAD38ED Accuracy: -m0 Conclusion: CDDA 100% Signature: 8BBC7ED6042219DA8C001DD772DA9D62C5363094FILE: 14. Laidback - God Can't Stop.flac Size: 29633905 Hash: 913F944DA485CB9656C2C816B30BE42A Accuracy: -m0 Conclusion: CDDA 100% Signature: 9CF5BD0486DF7030A4311EFB10784A2FE203E95CFILE: 13. Tony Faline - Feel The Funk.flac Size: 32836584 Hash: E5024D51AC7F331860168DBFD1D01B55 Accuracy: -m0 Conclusion: CDDA 100% Signature: 493CA17611DCE013770B71471B732153D5164DE1FILE: 12. Dreadzone - Believing In It.flac Size: 28347991 Hash: 47A26DCA7CC9E0248C34E9C4D4B93B8A Accuracy: -m0 Conclusion: CDDA 100% Signature: DB20FD09C96B5B7AF11A93D00962F72C6CCD821BFILE: 11. Outcast - Criminals.flac Size: 15212456 Hash: C0017189DB7ECF378D86A6E19A4960E7 Accuracy: -m0 Conclusion: CDDA 100% Signature: C580F270ED0DD547387C8E4F01640BE9B9DA8F90FILE: 10. Lee Coombs - Sky Juice.flac Size: 26044869 Hash: 163A6BF9E04AF03820C009CCA9D0A677 Accuracy: -m0 Conclusion: CDDA 100% Signature: BF8ED5C64D2333EB9A4020C0BC8900E955F006EDFILE: 09. Dj Spice - Groove Operator.flac Size: 15077802 Hash: 6FC6B8BDA17E46367AB560FB88D21807 Accuracy: -m0 Conclusion: CDDA 100% Signature: 9EE29D53161686ABAE0EC72C7D71AFF49FA57D14FILE: 08. Huda Hudia & Dj Volume - Let Me See If You Can Dance.flac Size: 10383124 Hash: 40B92CB614A6D41F8A6EBC6D52D0A770 Accuracy: -m0 Conclusion: CDDA 100% Signature: A4BE5EB9754FFDF7033685EA34B2FFE8D64F6260FILE: 07. Dj Technique - My Definition (Lee Coombs Acid House Breaks Mix).flac Size: 18711832 Hash: 9F5F51987CB33D263DD1451BE65006EE Accuracy: -m0 Conclusion: CDDA 100% Signature: 4012017745D3FEFE2529E6838729D76DD7C79B03FILE: 06. Mike & Charlie - Body Rock.flac Size: 18676796 Hash: 56FA63E47BC766D458A72E6218809329 Accuracy: -m0 Conclusion: CDDA 100% Signature: C08A89FD3589C046882001B1D89AFDEDD630F7FBFILE: 05. Bassbin Twins - Number 2.flac Size: 22872045 Hash: E15E10F2FE0667DC371B8460BE7EA6C6 Accuracy: -m0 Conclusion: CDDA 100% Signature: E6C25F3CD7433B8BD1B85A321D2A26B0A99884D0FILE: 04. Shakedown - Get Down.flac Size: 32305848 Hash: 5FF9C37EDDB6CE7F1A8DEE23CFFD09E0 Accuracy: -m0 Conclusion: CDDA 100% Signature: 1244F377B40712D407005F8FEA7728F6A5C7AB34FILE: 03. Red Tape - Worldwide.flac Size: 22579283 Hash: 8944C02BA6DBA089CD6A8E9215323700 Accuracy: -m0 Conclusion: CDDA 100% Signature: 11D1254345A0881CEA94CDA884721F6F14991375FILE: 02. Dj Love - Underground funk.flac Size: 22646151 Hash: 94C9DB4EBD873D626EA8C20AAA5AEC7C Accuracy: -m0 Conclusion: CDDA 99% Signature: B29FC7607D0D282E0D668E3C305B14C84C87CA3BFILE: 01. Ali B - Intro.flac Size: 2151698 Hash: 2861C7C19CBCE3C53FA4CEAC2F5663D8 Accuracy: -m0 Conclusion: CDDA 100% Signature: 360A7F8971D3135B59A99D09F2730753BA22EFD2

Замер динамического диапазона

foobar2000 1.3.5 / Замер динамического диапазона (DR) 1.1.1Дата отчёта: 2015-03-08 01:02:01
--------------------------------------------------------------------------------Анализ: Ali B / Fabriclive 02 - Ali B (1-2) Bassbin Twins / Fabriclive 02 - Ali B (3-4) Dj Icey / Fabriclive 02 - Ali B (5) Dj Love / Fabriclive 02 - Ali B (6) Dj Spice / Fabriclive 02 - Ali B (7) DJ Technique / Fabriclive 02 - Ali B (8) Dj Who / Fabriclive 02 - Ali B (9) Dreadzone / Fabriclive 02 - Ali B (10) Huda Hudia / Fabriclive 02 - Ali B (11) Ils / Fabriclive 02 - Ali B (12) Jammin' / Fabriclive 02 - Ali B (13) Laidback / Fabriclive 02 - Ali B (14) Lee Coombs / Fabriclive 02 - Ali B (15) Mike & Charlie / Fabriclive 02 - Ali B (16) Mr. Scruff / Fabriclive 02 - Ali B (17) OutKast / Fabriclive 02 - Ali B (18) Plump DJs / Fabriclive 02 - Ali B (19) PMT / Fabriclive 02 - Ali B (20) Shakedown / Fabriclive 02 - Ali B (21) Tony Faline / Fabriclive 02 - Ali B (22)--------------------------------------------------------------------------------
DR Пики RMS Продолжительность трека--------------------------------------------------------------------------------DR15 -0.43 дБ -18.56 дБ 0:21 01-IntroDR9 -0.17 дБ -10.77 дБ 3:15 03-WorldwideDR11 0.00 дБ -12.57 дБ 3:14 05-Number 2DR8 -0.21 дБ -9.72 дБ 2:33 19-ESWDR9 -0.17 дБ -11.02 дБ 4:10 15-SurrealDR9 -0.27 дБ -11.12 дБ 3:30 02-Underground FunkDR9 -0.20 дБ -11.01 дБ 2:25 09-Groove OperatorDR9 -0.18 дБ -10.13 дБ 2:39 07-My Definition (Lee Coombs Acid House Breaks Mix)DR10 -0.24 дБ -11.28 дБ 1:59 17-Feel The BassDR9 -0.12 дБ -11.27 дБ 3:49 12-Believing in It (Drumattic Twins Mix)DR11 -0.28 дБ -13.36 дБ 1:27 08-Let Me See If You Can DanceDR8 -0.18 дБ -11.24 дБ 5:15 21-Next LevelDR8 -0.18 дБ -10.02 дБ 2:33 20-Hold OnDR9 -0.24 дБ -10.89 дБ 4:12 14-God Can't StopDR9 -0.26 дБ -10.80 дБ 3:47 10-Sky JuiceDR11 0.00 дБ -12.19 дБ 2:49 06-Body RockDR11 -0.17 дБ -11.95 дБ 5:26 22-Night TimeDR9 -0.28 дБ -10.61 дБ 2:07 11-CriminalsDR8 -0.18 дБ -9.34 дБ 5:22 18-Big Groovy FuckerDR9 -0.13 дБ -11.37 дБ 3:39 16-GyromancerDR10 -0.27 дБ -11.16 дБ 4:26 04-Get DownDR10 -0.21 дБ -12.03 дБ 4:55 13-Feel The Funk--------------------------------------------------------------------------------
Количество треков: 22Реальные значения DR: DR10
Частота: 44100 ГцКаналов: 2Разрядность: 16Битрейт: 884 кбит/сКодек: FLAC================================================================================

Fabriclive 03 - Dj Hype (2002):

Label/Cat#: Fabric (London) – FABRIC 06
Country: UK
Year: 2002
Genre: Electronic
Style: Drum n Bass
Format: CD, Compilation, Mixed, Metal Case, Cardboard Sleeve
Tracklist
1. Moving Fusion – Thunderball (5:11)
2. Brockie & Ed Solo – Mars (3:19)
3. Mist:i:cal – Mistical Dub (3:08)
4. BC – Planet Dust (3:32)
5. DJ Zinc – Ska (4:02)
6. Total Science – Squash (3:29)
7. Sound Of The Future – The Lighter (2001 Twisted Individual Remix) (3:29)
8. Trinity – Jah (4:51)
9. BC – Rodeo (4:23)
10. Future Prophecies – Nightmare Walking (4:56)
11. Bonafide – Super2Bad (2:55)
12. Mist:i:cal – Swingtime (3:50)
13. Krust – Snapped It (5:51)
14. DJ Zinc – Casino Royale (5:07)
15. DJ Hype – True Playaz Style (4:23)
16. Pascal – Jazz Juice (3:08)
17. Shimon & Andy C – Body Rock (4:48)
18. Dillinja – Grimey (3:29)
Total length: 01:13:51
More information:

Лог создания рипа

Exact Audio Copy V0.99 prebeta 3 from 28. July 2007
EAC extraction logfile from 22. February 2008, 1:52
- / Fabriclive - 03 - DJ Hype
Used drive : TSSTcorpDVD+-RW TS-L632H Adapter: 2 ID: 0
Read mode : SecureUtilize accurate stream : YesDefeat audio cache : YesMake use of C2 pointers : No
Read offset correction : 6Overread into Lead-In and Lead-Out : NoFill up missing offset samples with silence : YesDelete leading and trailing silent blocks : NoNull samples used in CRC calculations : YesUsed interface : Installed external ASPI interfaceGap handling : Appended to previous track
Used output format : User Defined EncoderSelected bitrate : 192 kBit/sQuality : HighAdd ID3 tag : NoCommand line compressor : C:\Program Files\Exact Audio Copy\flac.exeAdditional command line options : -8 -A tukey(0.25) -A gauss(0.1875) -b 4096 -V -T "artist=%a" -T "title=%t" -T "album=%g" -T "date=%y" -T "tracknumber=%n" -T "genre=%m" %s --sector-align
TOC of the extracted CD
Track | Start | Length | Start sector | End sector --------------------------------------------------------- 1 | 0:00.00 | 5:11.35 | 0 | 23359 2 | 5:11.35 | 3:19.20 | 23360 | 38304 3 | 8:30.55 | 3:07.65 | 38305 | 52394 4 | 11:38.45 | 3:31.42 | 52395 | 68261 5 | 15:10.12 | 4:01.55 | 68262 | 86391 6 | 19:11.67 | 3:28.55 | 86392 | 102046 7 | 22:40.47 | 3:28.60 | 102047 | 117706 8 | 26:09.32 | 4:51.00 | 117707 | 139531 9 | 31:00.32 | 4:23.28 | 139532 | 159284 10 | 35:23.60 | 4:56.10 | 159285 | 181494 11 | 40:19.70 | 2:55.30 | 181495 | 194649 12 | 43:15.25 | 3:49.45 | 194650 | 211869 13 | 47:04.70 | 5:50.62 | 211870 | 238181 14 | 52:55.57 | 5:06.58 | 238182 | 261189 15 | 58:02.40 | 4:23.02 | 261190 | 280916 16 | 62:25.42 | 3:08.13 | 280917 | 295029 17 | 65:33.55 | 4:47.57 | 295030 | 316611 18 | 70:21.37 | 3:28.63 | 316612 | 332274
Track 1
Filename C:\Users\Jimmy\Desktop\Ripped Albums\Fabriclive 03\01 - - Moving Fusion , Thunderball.wav
Pre-gap length 0:00:02.00
Peak level 99.9 % Track quality 99.9 % Test CRC 8E722795 Copy CRC 8E722795 Copy OK
Track 2
Filename C:\Users\Jimmy\Desktop\Ripped Albums\Fabriclive 03\02 - - Brockie & Ed Solo , Mars.wav
Peak level 98.3 % Track quality 100.0 % Test CRC 94E96B26 Copy CRC 94E96B26 Copy OK
Track 3
Filename C:\Users\Jimmy\Desktop\Ripped Albums\Fabriclive 03\03 - - Mist-i-Cal , Mistical Dub.wav
Peak level 99.9 % Track quality 100.0 % Test CRC 2D65B8CD Copy CRC 2D65B8CD Copy OK
Track 4
Filename C:\Users\Jimmy\Desktop\Ripped Albums\Fabriclive 03\04 - - Bad Company , Planet Dust.wav
Peak level 97.9 % Track quality 100.0 % Test CRC 0A965253 Copy CRC 0A965253 Copy OK
Track 5
Filename C:\Users\Jimmy\Desktop\Ripped Albums\Fabriclive 03\05 - - DJ Zinc , Ska.wav
Peak level 99.9 % Track quality 99.9 % Test CRC 6C6AD13F Copy CRC 6C6AD13F Copy OK
Track 6
Filename C:\Users\Jimmy\Desktop\Ripped Albums\Fabriclive 03\06 - - Total Science , Squash.wav
Peak level 99.9 % Track quality 100.0 % Test CRC F132D609 Copy CRC F132D609 Copy OK
Track 7
Filename C:\Users\Jimmy\Desktop\Ripped Albums\Fabriclive 03\07 - - Sound Of The Future , Lighter, Twisted, The.wav
Peak level 100.0 % Track quality 100.0 % Test CRC 1EC15647 Copy CRC 1EC15647 Copy OK
Track 8
Filename C:\Users\Jimmy\Desktop\Ripped Albums\Fabriclive 03\08 - - Trinity , Jah.wav
Peak level 100.0 % Track quality 100.0 % Test CRC 1BB054D0 Copy CRC 1BB054D0 Copy OK
Track 9
Filename C:\Users\Jimmy\Desktop\Ripped Albums\Fabriclive 03\09 - - Bad Company , Rodeo.wav
Peak level 99.9 % Track quality 100.0 % Test CRC DAD966E8 Copy CRC DAD966E8 Copy OK
Track 10
Filename C:\Users\Jimmy\Desktop\Ripped Albums\Fabriclive 03\10 - - Future Prophecies , Nightmare Walking.wav
Peak level 98.5 % Track quality 100.0 % Test CRC 569CEFAC Copy CRC 569CEFAC Copy OK
Track 11
Filename C:\Users\Jimmy\Desktop\Ripped Albums\Fabriclive 03\11 - - Bonafide , Super2Bad.wav
Peak level 99.9 % Track quality 100.0 % Test CRC 58C126D8 Copy CRC 58C126D8 Copy OK
Track 12
Filename C:\Users\Jimmy\Desktop\Ripped Albums\Fabriclive 03\12 - - Mis-i-Cal , Swingtime.wav
Peak level 98.8 % Track quality 100.0 % Test CRC 9C12B64A Copy CRC 9C12B64A Copy OK
Track 13
Filename C:\Users\Jimmy\Desktop\Ripped Albums\Fabriclive 03\13 - - Krust , Snapped It.wav
Peak level 100.0 % Track quality 100.0 % Test CRC FC0BC92B Copy CRC FC0BC92B Copy OK
Track 14
Filename C:\Users\Jimmy\Desktop\Ripped Albums\Fabriclive 03\14 - - DJ Zinc , Casino Royale.wav
Peak level 97.1 % Track quality 100.0 % Test CRC 8B761776 Copy CRC 8B761776 Copy OK
Track 15
Filename C:\Users\Jimmy\Desktop\Ripped Albums\Fabriclive 03\15 - - DJ Hype , True Playaz Style.wav
Peak level 99.9 % Track quality 100.0 % Test CRC F18CAE63 Copy CRC F18CAE63 Copy OK
Track 16
Filename C:\Users\Jimmy\Desktop\Ripped Albums\Fabriclive 03\16 - - Pascal , Jazz Juice.wav
Peak level 96.9 % Track quality 100.0 % Test CRC 4287C78F Copy CRC 4287C78F Copy OK
Track 17
Filename C:\Users\Jimmy\Desktop\Ripped Albums\Fabriclive 03\17 - - Shimon & Andy C , Body Rock.wav
Peak level 99.1 % Track quality 100.0 % Test CRC 00D5CA2B Copy CRC 00D5CA2B Copy OK
Track 18
Filename C:\Users\Jimmy\Desktop\Ripped Albums\Fabriclive 03\18 - - Dillinja , Grimey.wav
Peak level 99.9 % Track quality 100.0 % Test CRC FCC935DF Copy CRC FCC935DF Copy OK
No errors occurred
End of status report

Содержание индексной карты (.CUE)

REM GENRE "Drum & Bass"REM DATE 2002REM DISCID EE114E12REM COMMENT "ExactAudioCopy v0.99pb3"PERFORMER "Various Artists"TITLE "Fabriclive 03 - Dj Hype"FILE "01. Moving Fusion - Thunderball.wav" WAVE TRACK 01 AUDIO PERFORMER "Moving Fusion" TITLE "Thunderball" INDEX 01 00:00:00FILE "02. Brockie & Ed Solo - Mars.wav" WAVE TRACK 02 AUDIO PERFORMER "Brockie & Ed Solo" TITLE "Mars" INDEX 01 00:00:00FILE "03. Mist-i-cal - Mistical Dub.wav" WAVE TRACK 03 AUDIO PERFORMER "Mist:i:cal" TITLE "Mistical Dub" INDEX 01 00:00:00FILE "04. Bad Company - Planet Dust.wav" WAVE TRACK 04 AUDIO PERFORMER "Bad Company" TITLE "Planet Dust" INDEX 01 00:00:00FILE "05. Dj Zinc - Ska.wav" WAVE TRACK 05 AUDIO PERFORMER "Dj Zinc" TITLE "Ska" INDEX 01 00:00:00FILE "06. Total Science - Squash.wav" WAVE TRACK 06 AUDIO PERFORMER "Total Science" TITLE "Squash" INDEX 01 00:00:00FILE "07. Sound Of The Future - The Lighter (2001 Twisted Individual Remix).wav" WAVE TRACK 07 AUDIO PERFORMER "Sound Of The Future" TITLE "The Lighter (2001 Twisted Individual Remix)" INDEX 01 00:00:00FILE "08. Trinity - Jah.wav" WAVE TRACK 08 AUDIO PERFORMER "Trinity" TITLE "Jah" INDEX 01 00:00:00FILE "09. Bad Company - Rodeo.wav" WAVE TRACK 09 AUDIO PERFORMER "Bad Company" TITLE "Rodeo" INDEX 01 00:00:00FILE "10. Future Prophecies - Nightmare Walking.wav" WAVE TRACK 10 AUDIO PERFORMER "Future Prophecies" TITLE "Nightmare Walking" INDEX 01 00:00:00FILE "11. Bonafide - Super2Bad.wav" WAVE TRACK 11 AUDIO PERFORMER "Bonafide" TITLE "Super2Bad" INDEX 01 00:00:00FILE "12. Mist-i-cal - Swingtime.wav" WAVE TRACK 12 AUDIO PERFORMER "Mist:i:cal" TITLE "Swingtime" INDEX 01 00:00:00FILE "13. Krust - Snapped It.wav" WAVE TRACK 13 AUDIO PERFORMER "Krust" TITLE "Snapped It" INDEX 01 00:00:00FILE "14. Dj Zinc - Casino Royale.wav" WAVE TRACK 14 AUDIO PERFORMER "Dj Zinc" TITLE "Casino Royale" INDEX 01 00:00:00FILE "15. Dj Hype - True Playaz Style.wav" WAVE TRACK 15 AUDIO PERFORMER "Dj Hype" TITLE "True Playaz Style" INDEX 01 00:00:00FILE "16. Pascal - Jazz Juice.wav" WAVE TRACK 16 AUDIO PERFORMER "Pascal" TITLE "Jazz Juice" INDEX 01 00:00:00FILE "17. Shimon & Andy C - Body Rock.wav" WAVE TRACK 17 AUDIO PERFORMER "Shimon & Andy C" TITLE "Body Rock" INDEX 01 00:00:00FILE "18. Dillinja - Grimey.wav" WAVE TRACK 18 AUDIO PERFORMER "Dillinja" TITLE "Grimey" INDEX 01 00:00:00

Лог проверки качества

-----------------------
DON'T MODIFY THIS FILE
-----------------------
PERFORMER: auCDtect Task Manager, ver. 1.6.0 RC1 build 1.6.0.1Copyright (c) 2008-2010 y-soft. All rights reservedhttp://y-soft.org
ANALYZER: auCDtect: CD records authenticity detector, version 0.8.2Copyright (c) 2004 Oleg Berngardt. All rights reserved.Copyright (c) 2004 Alexander Djourik. All rights reserved.
FILE: 18. Dillinja - Grimey.flac Size: 27147317 Hash: 10A4B93F96FA8608CF4ECBF57A3B39D3 Accuracy: -m0 Conclusion: CDDA 100% Signature: 21251B107BF0208CD32575EDC6C3BA7F6451DB1FFILE: 17. Shimon & Andy C - Body Rock.flac Size: 36605056 Hash: 35BC7726545886D4502EE15E1A413D86 Accuracy: -m0 Conclusion: CDDA 100% Signature: 8904D6CD28AA76C771F901F4BCDF314DD8814C43FILE: 16. Pascal - Jazz Juice.flac Size: 22509919 Hash: F4E22803E12F1ED63E0BF37695851DF8 Accuracy: -m0 Conclusion: CDDA 100% Signature: 6E9A80661F8524F39FFCBAEA09A52FFC89CE6AD2FILE: 15. Dj Hype - True Playaz Style.flac Size: 34063474 Hash: 9985492317BEA54FC71EF7772EB6EB77 Accuracy: -m0 Conclusion: CDDA 100% Signature: 8FF1B5C88DBFCD3D60B6F922D4A97BCD91EFF83BFILE: 14. Dj Zinc - Casino Royale.flac Size: 37404540 Hash: 23A7E311F7DE212E71BC96B89EC7D3C9 Accuracy: -m0 Conclusion: CDDA 100% Signature: 2921F4B907A02CAF426740CC4C3CF17BE46B2F3FFILE: 13. Krust - Snapped It.flac Size: 41347107 Hash: DA181189F56F8D19AC269899FD3109B6 Accuracy: -m0 Conclusion: CDDA 100% Signature: 2CB0A0D48BAC563559FB559BB74CA5B0F5632E3DFILE: 12. Mist-i-cal - Swingtime.flac Size: 30100284 Hash: C790FAFF823E30B1A145FC542F3A60F2 Accuracy: -m0 Conclusion: CDDA 100% Signature: 7B7B02A9A23E27209B79FA2C59838998F0A58BF5FILE: 11. Bonafide - Super2Bad.flac Size: 22778242 Hash: 4D1F01158ECEAA03DDBAF4BE11E03660 Accuracy: -m0 Conclusion: CDDA 100% Signature: 0EABD1DFB4E131933A2D0EFAA141C3D21B55624FFILE: 10. Future Prophecies - Nightmare Walking.flac Size: 38827634 Hash: AA3D426CBC05F403B083FBE3162286BD Accuracy: -m0 Conclusion: CDDA 100% Signature: 5D8ECCEA48FA2E55D5C35094965B405F58FCB06BFILE: 09. Bad Company - Rodeo.flac Size: 31884093 Hash: 0BAF4EB7533D88F9196615044301A9E9 Accuracy: -m0 Conclusion: CDDA 100% Signature: 13F9C2D69CDD6C83A0049FF6CE557CFB8C27EB91FILE: 08. Trinity - Jah.flac Size: 36731881 Hash: DC1727C3847A0ADBBC3ACF4FE741A42A Accuracy: -m0 Conclusion: CDDA 100% Signature: 63F3B6AE8EA683DD1A7A54AE82473CBAFE642619FILE: 07. Sound Of The Future - The Lighter (2001 Twisted Individual Remix).flac Size: 27895573 Hash: 28B223755AEA244F12B4461BF972FF68 Accuracy: -m0 Conclusion: CDDA 100% Signature: 59E81DB84F6733B036C36CD573A4E5A3B190832CFILE: 06. Total Science - Squash.flac Size: 26250823 Hash: A175FD709B9749AB325D9136C7E5B2CA Accuracy: -m0 Conclusion: CDDA 100% Signature: FF25E5E3478FF76F4F349EF06416D267F2F794CAFILE: 05. Dj Zinc - Ska.flac Size: 32085231 Hash: C05D2FE1BA0DF41F5145B17F6E3193D9 Accuracy: -m0 Conclusion: CDDA 100% Signature: AB23B784261164EDAEC0BD260D01D9F982E77EA2FILE: 04. Bad Company - Planet Dust.flac Size: 27125312 Hash: 27DFE2D0D33290E5D8A0E9EA1C2E1AB7 Accuracy: -m0 Conclusion: CDDA 100% Signature: C8566F8C1A14F126B5BB23A4B05A16E09CF04F38FILE: 03. Mist-i-cal - Mistical Dub.flac Size: 23996809 Hash: 5CA6011AB54EC226EF473E3E95CDFCB1 Accuracy: -m0 Conclusion: CDDA 100% Signature: 1F2337E1753E2D9FE012E494C5A327030C219D99FILE: 02. Brockie & Ed Solo - Mars.flac Size: 26632983 Hash: 882B3C9A018C16E85C91620FBBFAD9C8 Accuracy: -m0 Conclusion: CDDA 100% Signature: CCCF2803394430B8F2DCC4C6B24A3D944244B3C5FILE: 01. Moving Fusion - Thunderball.flac Size: 39776005 Hash: 45E1CA0EF5A62048B30E2C215908F461 Accuracy: -m0 Conclusion: CDDA 100% Signature: 09C935AC18C318085F31B1DA9F6EA1DDF50020A7

Замер динамического диапазона

foobar2000 1.3.5 / Замер динамического диапазона (DR) 1.1.1Дата отчёта: 2015-03-08 01:01:38
--------------------------------------------------------------------------------Анализ: Bad Company / Fabriclive 03 - Dj Hype (1-2) Bonafide / Fabriclive 03 - Dj Hype (3) Brockie & Ed Solo / Fabriclive 03 - Dj Hype (4) Dillinja / Fabriclive 03 - Dj Hype (5) Dj Hype / Fabriclive 03 - Dj Hype (6) Dj Zinc / Fabriclive 03 - Dj Hype (7-8) Future Prophecies / Fabriclive 03 - Dj Hype (9) Krust / Fabriclive 03 - Dj Hype (10) Mist:i:cal / Fabriclive 03 - Dj Hype (11-12) Moving Fusion / Fabriclive 03 - Dj Hype (13) Pascal / Fabriclive 03 - Dj Hype (14) Shimon & Andy C / Fabriclive 03 - Dj Hype (15) Sound Of The Future / Fabriclive 03 - Dj Hype (16) Total Science / Fabriclive 03 - Dj Hype (17) Trinity / Fabriclive 03 - Dj Hype (18)--------------------------------------------------------------------------------
DR Пики RMS Продолжительность трека--------------------------------------------------------------------------------DR8 -0.18 дБ -10.35 дБ 3:32 04-Planet DustDR10 0.00 дБ -11.50 дБ 4:23 09-RodeoDR9 0.00 дБ -9.82 дБ 2:55 11-Super2BadDR9 -0.14 дБ -9.87 дБ 3:19 02-MarsDR9 0.00 дБ -10.08 дБ 3:29 18-GrimeyDR8 0.00 дБ -9.32 дБ 4:23 15-True Playaz StyleDR8 0.00 дБ -9.35 дБ 4:02 05-SkaDR9 -0.25 дБ -10.65 дБ 5:07 14-Casino RoyaleDR8 -0.12 дБ -9.72 дБ 4:56 10-Nightmare WalkingDR10 0.00 дБ -10.71 дБ 5:51 13-Snapped ItDR8 0.00 дБ -9.26 дБ 3:08 03-Mistical DubDR9 -0.10 дБ -10.43 дБ 3:50 12-SwingtimeDR8 0.00 дБ -10.25 дБ 5:11 01-ThunderballDR10 -0.27 дБ -11.96 дБ 3:08 16-Jazz JuiceDR8 -0.08 дБ -10.04 дБ 4:48 17-Body RockDR8 0.00 дБ -9.58 дБ 3:29 07-The Lighter (2001 Twisted Individual Remix)DR9 0.00 дБ -10.07 дБ 3:29 06-SquashDR9 0.00 дБ -10.37 дБ 4:51 08-Jah--------------------------------------------------------------------------------
Количество треков: 18Реальные значения DR: DR9
Частота: 44100 ГцКаналов: 2Разрядность: 16Битрейт: 1006 кбит/сКодек: FLAC================================================================================

Fabriclive 04 - Deadly Avenger (2002):

Label/Cat#: Fabric (London) – FABRIC8
Country: UK
Year: 2002
Genre: Electronic, Hip Hop, Funk / Soul
Style: Breaks, Cut-up/DJ, Funk, Disco, Hip Hop
Format: CD, Mixed, Metal Case, Cardboard Sleeve
Tracklist
1. Deadly Avenger – We Took Pelham (2:55)
2. DJ LBR – Megadeath (4:29)
3. Deadly Avenger – Live At The Capri (3:46)
4. Crooklyn Clan – Franklinz 2000 (4:17)
5. Frank Delour – Put Em' Up (3:10)
6. LL Cool J – The G.O.A.T. (3:53)
7. DJ LBR – NY Make Some Noise (2:10)
8. DJ LBR – Let Me Clear My Funk (2:36)
9. Jimmy "Bo" Horne – Dance Across The Floor (1:47)
10. Ceasefire & Deadly Avenger – Caipirinha (5:43)
11. Jackson Sisters – I Believe In Miracles (4:13)
12. Dynamo Productions – Hit The Floor (2:28)
13. The Nextmen – Midnight Method (4:12)
14. Maceo & The Macks – Cross The Track (3:08)
15. Crooklyn Clan – Crowd Motivator (feat. DJ Ace) (2:26)
16. Crooklyn Clan – Let's Get Ill (3:00)
17. Crooklyn Clan – Crowd Motivator (Old School Dub) (feat. DJ Ace) (2:02)
18. The Jackson 5 – I Want You Back (2:46)
19. DJ AP – Let Me Know (2:25)
20. Petricone – Handz Across The Water Mix (8:12)
Total length: 01:09:38
More information:

Лог создания рипа

Exact Audio Copy V0.99 prebeta 4 from 23. January 2008
EAC extraction logfile from 21. January 2009, 19:46
Various / Deadly Avenger - Fabriclive 04
Used drive : MATSHITADVD-RAM UJ-875S Adapter: 0 ID: 0
Read mode : SecureUtilize accurate stream : YesDefeat audio cache : YesMake use of C2 pointers : No
Read offset correction : 102Overread into Lead-In and Lead-Out : NoFill up missing offset samples with silence : YesDelete leading and trailing silent blocks : NoNull samples used in CRC calculations : YesUsed interface : Native Win32 interface for Win NT & 2000Gap handling : Appended to previous track
Used output format : User Defined EncoderSelected bitrate : 768 kBit/sQuality : HighAdd ID3 tag : NoCommand line compressor : C:\Program Files\Exact Audio Copy\FLAC\FLAC.EXEAdditional command line options : -V -8 -T "artist=%a" -T "title=%t" -T "album=%g" -T "date=%y" -T "tracknumber=%n" -T "genre=%m" %s
TOC of the extracted CD
Track | Start | Length | Start sector | End sector --------------------------------------------------------- 1 | 0:00.00 | 2:55.49 | 0 | 13173 2 | 2:55.49 | 4:29.11 | 13174 | 33359 3 | 7:24.60 | 3:46.34 | 33360 | 50343 4 | 11:11.19 | 4:17.30 | 50344 | 69648 5 | 15:28.49 | 3:10.33 | 69649 | 83931 6 | 18:39.07 | 3:53.55 | 83932 | 101461 7 | 22:32.62 | 2:10.57 | 101462 | 111268 8 | 24:43.44 | 2:36.32 | 111269 | 123000 9 | 27:20.01 | 1:47.23 | 123001 | 131048 10 | 29:07.24 | 5:43.24 | 131049 | 156797 11 | 34:50.48 | 4:13.39 | 156798 | 175811 12 | 39:04.12 | 2:28.47 | 175812 | 186958 13 | 41:32.59 | 4:12.30 | 186959 | 205888 14 | 45:45.14 | 3:08.17 | 205889 | 220005 15 | 48:53.31 | 2:26.57 | 220006 | 231012 16 | 51:20.13 | 3:00.15 | 231013 | 244527 17 | 54:20.28 | 2:02.02 | 244528 | 253679 18 | 56:22.30 | 2:46.29 | 253680 | 266158 19 | 59:08.59 | 2:25.17 | 266159 | 277050 20 | 61:34.01 | 8:12.13 | 277051 | 313963
Track 1
Filename D:\My Documents\My Music\Various\Deadly Avenger - Fabriclive 04\01. Deadly Avenger - We Took Pelham.wav
Pre-gap length 0:00:02.00
Peak level 98.8 % Track quality 99.9 % Test CRC 75034D5B Copy CRC 75034D5B Accurately ripped (confidence 6) [1644DB4E] Copy OK
Track 2
Filename D:\My Documents\My Music\Various\Deadly Avenger - Fabriclive 04\02. DJ Lbr - Megadeath.wav
Peak level 98.8 % Track quality 100.0 % Test CRC AFA69F6E Copy CRC AFA69F6E Accurately ripped (confidence 5) [6413AE69] Copy OK
Track 3
Filename D:\My Documents\My Music\Various\Deadly Avenger - Fabriclive 04\03. Deadly Avenger - Live At The Capri.wav
Pre-gap length 0:00:00.09
Peak level 98.8 % Track quality 99.9 % Test CRC 1B1B9890 Copy CRC 1B1B9890 Accurately ripped (confidence 5) [08908FAF] Copy OK
Track 4
Filename D:\My Documents\My Music\Various\Deadly Avenger - Fabriclive 04\04. Crooklyn Clan - Franklinz 2000.wav
Pre-gap length 0:00:00.04
Peak level 98.8 % Track quality 100.0 % Test CRC 8F16CA20 Copy CRC 8F16CA20 Accurately ripped (confidence 6) [524E2F91] Copy OK
Track 5
Filename D:\My Documents\My Music\Various\Deadly Avenger - Fabriclive 04\05. Frank Delour - Put 'em Up.wav
Peak level 98.8 % Track quality 100.0 % Test CRC 04D5FA0E Copy CRC 04D5FA0E Accurately ripped (confidence 6) [B46EDC45] Copy OK
Track 6
Filename D:\My Documents\My Music\Various\Deadly Avenger - Fabriclive 04\06. LL Cool J - The G.O.A.T..wav
Peak level 98.8 % Track quality 100.0 % Test CRC CD46D758 Copy CRC CD46D758 Accurately ripped (confidence 6) [91B8E2F7] Copy OK
Track 7
Filename D:\My Documents\My Music\Various\Deadly Avenger - Fabriclive 04\07. DJ LBR - Make Some Noise.wav
Pre-gap length 0:00:00.02
Peak level 98.8 % Track quality 100.0 % Test CRC 2346B8E9 Copy CRC 2346B8E9 Accurately ripped (confidence 6) [312BDBD4] Copy OK
Track 8
Filename D:\My Documents\My Music\Various\Deadly Avenger - Fabriclive 04\08. DJ LBR - Let Me Clear My Funk.wav
Peak level 98.8 % Track quality 100.0 % Test CRC 7A81E445 Copy CRC 7A81E445 Accurately ripped (confidence 5) [AF085247] Copy OK
Track 9
Filename D:\My Documents\My Music\Various\Deadly Avenger - Fabriclive 04\09. Jimmy Bo Horne - Dance Across The Floor.wav
Peak level 98.8 % Track quality 100.0 % Test CRC BFB9D364 Copy CRC BFB9D364 Accurately ripped (confidence 6) [68D5BF40] Copy OK
Track 10
Filename D:\My Documents\My Music\Various\Deadly Avenger - Fabriclive 04\10. Ceasefire Vs Deadly Avenger - Caiprinha.wav
Pre-gap length 0:00:00.20
Peak level 98.8 % Track quality 99.9 % Test CRC CDA224EE Copy CRC CDA224EE Accurately ripped (confidence 5) [A7D583EE] Copy OK
Track 11
Filename D:\My Documents\My Music\Various\Deadly Avenger - Fabriclive 04\11. Jackson Sisters - I Believe In Miracles.wav
Peak level 98.8 % Track quality 100.0 % Test CRC 355F20E3 Copy CRC 355F20E3 Accurately ripped (confidence 5) [4CC7FE4F] Copy OK
Track 12
Filename D:\My Documents\My Music\Various\Deadly Avenger - Fabriclive 04\12. Dynamo Productions - Hit The Floor.wav
Peak level 98.8 % Track quality 100.0 % Test CRC 77CAB4B0 Copy CRC 77CAB4B0 Accurately ripped (confidence 5) [15EA0C38] Copy OK
Track 13
Filename D:\My Documents\My Music\Various\Deadly Avenger - Fabriclive 04\13. The Nextmen - Midnight Method.wav
Peak level 98.8 % Track quality 100.0 % Test CRC 83346BE9 Copy CRC 83346BE9 Accurately ripped (confidence 5) [DBC50F1B] Copy OK
Track 14
Filename D:\My Documents\My Music\Various\Deadly Avenger - Fabriclive 04\14. Maceo And The Macks - Cross The Tracks.wav
Pre-gap length 0:00:00.04
Peak level 98.8 % Track quality 100.0 % Test CRC 098286D8 Copy CRC 098286D8 Accurately ripped (confidence 5) [CF28DBEF] Copy OK
Track 15
Filename D:\My Documents\My Music\Various\Deadly Avenger - Fabriclive 04\15. DJ Ace - Crowd Motivator.wav
Peak level 98.8 % Track quality 99.9 % Test CRC 18E6C060 Copy CRC 18E6C060 Accurately ripped (confidence 5) [38974BAB] Copy OK
Track 16
Filename D:\My Documents\My Music\Various\Deadly Avenger - Fabriclive 04\16. Crooklyn Clan - Let's Get Ill.wav
Peak level 98.8 % Track quality 100.0 % Test CRC 17900606 Copy CRC 17900606 Accurately ripped (confidence 5) [596AEF65] Copy OK
Track 17
Filename D:\My Documents\My Music\Various\Deadly Avenger - Fabriclive 04\17. DJ Ace - Crowd Motivator (Old Skool Dub).wav
Peak level 98.8 % Track quality 100.0 % Test CRC EDDFC12B Copy CRC EDDFC12B Accurately ripped (confidence 6) [EF6ABD9E] Copy OK
Track 18
Filename D:\My Documents\My Music\Various\Deadly Avenger - Fabriclive 04\18. Jackson 5 - I Want You Back.wav
Peak level 98.8 % Track quality 99.9 % Test CRC C861A2B7 Copy CRC C861A2B7 Accurately ripped (confidence 6) [BA775631] Copy OK
Track 19
Filename D:\My Documents\My Music\Various\Deadly Avenger - Fabriclive 04\19. DJ AP - Let Me Know.wav
Peak level 98.8 % Track quality 100.0 % Test CRC A55FE841 Copy CRC A55FE841 Accurately ripped (confidence 5) [0D3D9B1C] Copy OK
Track 20
Filename D:\My Documents\My Music\Various\Deadly Avenger - Fabriclive 04\20. Petricone - Handz Across The Water Mix.wav
Peak level 98.8 % Track quality 100.0 % Test CRC D6753B52 Copy CRC D6753B52 Accurately ripped (confidence 6) [5E65112A] Copy OK
All tracks accurately ripped
No errors occurred
End of status report

Содержание индексной карты (.CUE)

REM GENRE FunkREM DATE 2002REM DISCID 29105A14REM COMMENT ExactAudioCopy v0.99pb4PERFORMER "Various Artists"TITLE "Deadly Avenger - Fabriclive 04"FILE "01. Deadly Avenger - We Took Pelham.wav" WAVE TRACK 01 AUDIO TITLE "We Took Pelham" PERFORMER "Deadly Avenger" INDEX 01 00:00:00FILE "02. DJ Lbr - Megadeath.wav" WAVE TRACK 02 AUDIO TITLE "Megadeath" PERFORMER "DJ Lbr" INDEX 01 00:00:00FILE "03. Deadly Avenger - Live At The Capri.wav" WAVE TRACK 03 AUDIO TITLE "Live At The Capri" PERFORMER "Deadly Avenger" PREGAP 00:00:09 INDEX 01 00:00:00FILE "04. Crooklyn Clan - Franklinz 2000.wav" WAVE TRACK 04 AUDIO TITLE "Franklinz 2000" PERFORMER "Crooklyn Clan" PREGAP 00:00:04 INDEX 01 00:00:00FILE "05. Frank Delour - Put 'em Up.wav" WAVE TRACK 05 AUDIO TITLE "Put 'em Up" PERFORMER "Frank Delour" INDEX 01 00:00:00FILE "06. LL Cool J - The G.O.A.T..wav" WAVE TRACK 06 AUDIO TITLE "The G.O.A.T." PERFORMER "LL Cool J" INDEX 01 00:00:00FILE "07. DJ LBR - Make Some Noise.wav" WAVE TRACK 07 AUDIO TITLE "Make Some Noise" PERFORMER "DJ LBR" PREGAP 00:00:02 INDEX 01 00:00:00FILE "08. DJ LBR - Let Me Clear My Funk.wav" WAVE TRACK 08 AUDIO TITLE "Let Me Clear My Funk" PERFORMER "DJ LBR" INDEX 01 00:00:00FILE "09. Jimmy Bo Horne - Dance Across The Floor.wav" WAVE TRACK 09 AUDIO TITLE "Dance Across The Floor" PERFORMER "Jimmy Bo Horne" INDEX 01 00:00:00FILE "10. Ceasefire Vs Deadly Avenger - Caiprinha.wav" WAVE TRACK 10 AUDIO TITLE "Caiprinha" PERFORMER "Ceasefire Vs Deadly Avenger" PREGAP 00:00:20 INDEX 01 00:00:00FILE "11. Jackson Sisters - I Believe In Miracles.wav" WAVE TRACK 11 AUDIO TITLE "I Believe In Miracles" PERFORMER "Jackson Sisters" INDEX 01 00:00:00FILE "12. Dynamo Productions - Hit The Floor.wav" WAVE TRACK 12 AUDIO TITLE "Hit The Floor" PERFORMER "Dynamo Productions" INDEX 01 00:00:00FILE "13. The Nextmen - Midnight Method.wav" WAVE TRACK 13 AUDIO TITLE "Midnight Method" PERFORMER "The Nextmen" INDEX 01 00:00:00FILE "14. Maceo And The Macks - Cross The Tracks.wav" WAVE TRACK 14 AUDIO TITLE "Cross The Tracks" PERFORMER "Maceo And The Macks" PREGAP 00:00:04 INDEX 01 00:00:00FILE "15. DJ Ace - Crowd Motivator.wav" WAVE TRACK 15 AUDIO TITLE "Crowd Motivator" PERFORMER "DJ Ace" INDEX 01 00:00:00FILE "16. Crooklyn Clan - Let's Get Ill.wav" WAVE TRACK 16 AUDIO TITLE "Let's Get Ill" PERFORMER "Crooklyn Clan" INDEX 01 00:00:00FILE "17. DJ Ace - Crowd Motivator (Old Skool Dub).wav" WAVE TRACK 17 AUDIO TITLE "Crowd Motivator (Old Skool Dub)" PERFORMER "DJ Ace" INDEX 01 00:00:00FILE "18. Jackson 5 - I Want You Back.wav" WAVE TRACK 18 AUDIO TITLE "I Want You Back" PERFORMER "Jackson 5" INDEX 01 00:00:00FILE "19. DJ AP - Let Me Know.wav" WAVE TRACK 19 AUDIO TITLE "Let Me Know" PERFORMER "DJ AP" INDEX 01 00:00:00FILE "20. Petricone - Handz Across The Water Mix.wav" WAVE TRACK 20 AUDIO TITLE "Handz Across The Water Mix" PERFORMER "Petricone" INDEX 01 00:00:00

Лог проверки качества

-----------------------
DON'T MODIFY THIS FILE
-----------------------
PERFORMER: auCDtect Task Manager, ver. 1.6.0 RC1 build 1.6.0.1Copyright (c) 2008-2010 y-soft. All rights reservedhttp://y-soft.org
ANALYZER: auCDtect: CD records authenticity detector, version 0.8.2Copyright (c) 2004 Oleg Berngardt. All rights reserved.Copyright (c) 2004 Alexander Djourik. All rights reserved.
FILE: 20. Petricone - Handz Across The Water Mix.flac Size: 55046281 Hash: BF427CA8C296D9AA7B1DB0B2AA54AFD7 Accuracy: -m0 Conclusion: CDDA 100% Signature: 23AC2F8057E2FEE71FE54FACC5790B8C6DA1B93FFILE: 19. Dj AP - Let Me Know.flac Size: 17224764 Hash: 9E5C49213B5145F790923E0013E88946 Accuracy: -m0 Conclusion: CDDA 100% Signature: FBB36342D172D9B3E046E8D77E633B26604E4900FILE: 18. Jackson 5 - I Want You Back.flac Size: 19239149 Hash: AFFCE5DFBFB75D836A1E63D4D05AE03E Accuracy: -m0 Conclusion: CDDA 100% Signature: 4532CCF688906C90BD9C8C9846849D2918A89F71FILE: 17. Dj Ace - Crowd Motivator (Old Skool Dub).flac Size: 14748316 Hash: 82EBD1355E67721216050CD6F1CD12EC Accuracy: -m0 Conclusion: CDDA 100% Signature: 987E7A080273ECC91DD77F90300ADA0549D68145FILE: 16. Crooklyn Clan - Let's Get Ill.flac Size: 19196292 Hash: 710FE650B2AB77A9B7EB01B51F1A471C Accuracy: -m0 Conclusion: CDDA 100% Signature: 93984620DD07CE7FEB71545869F342BFBAB3625CFILE: 15. Dj Ace - Crowd Motivator.flac Size: 17255147 Hash: 82E7E446EA6D09EF4EDB5E667A7ACD94 Accuracy: -m0 Conclusion: CDDA 100% Signature: 51EA4DAFD3EB5D0AE6BE3CEF3D38AA0F633BF1BDFILE: 14. Maceo And The Macks - Cross The Tracks.flac Size: 23730474 Hash: 7D20D9DC510C42296C9B42A27E63AA13 Accuracy: -m0 Conclusion: CDDA 100% Signature: B4D7EF86D4C79A562B8B40B5A11BCE8033AC8A9CFILE: 13. The Nextmen - Midnight Method.flac Size: 26888548 Hash: CF47D11D8ACCEBE98C4EB921DB78AEE8 Accuracy: -m0 Conclusion: CDDA 99% Signature: 63447CE3A2D15DC2DF9D624FFB657DB90FA6FE09FILE: 12. Dynamo Productions - Hit The Floor.flac Size: 16140498 Hash: C40E7008E679829C5549FEB87AA3F3CE Accuracy: -m0 Conclusion: CDDA 99% Signature: E44605070B89505E81A89EFAE28ABDD1410AC9D1FILE: 11. Jackson Sisters - I Believe In Miracles.flac Size: 28877376 Hash: 1CA7C489B224FA1B7E8FD5AE12F61652 Accuracy: -m0 Conclusion: CDDA 100% Signature: 571D4732BC5D3CC78415F8A72214DA6BB5128BF4FILE: 10. Ceasefire Vs Deadly Avenger - Caiprinha.flac Size: 39015779 Hash: 7E4E00DB4D1620DF3F85C59F259CE97C Accuracy: -m0 Conclusion: CDDA 99% Signature: EA74E3EF1FD84F3040EB77E731F69101B07EBB37FILE: 09. Jimmy Bo Horne - Dance Across The Floor.flac Size: 13117709 Hash: E4883E77544FF2CA6205D39392B6465F Accuracy: -m0 Conclusion: CDDA 99% Signature: 9970BECDFB70ABC630BDE0B265CC6D85F8AA9CD7FILE: 08. DJ LBR - Let Me Clear My Funk.flac Size: 17352265 Hash: 59194B836F134450A2B4A42A85CD4378 Accuracy: -m0 Conclusion: CDDA 100% Signature: 364A55D1BEDF087D49DAC49F7D2DB7C5E3662AE8FILE: 07. DJ LBR - Make Some Noise.flac Size: 14210789 Hash: 6F79A9BD02788CD085EF9C679314FE4B Accuracy: -m0 Conclusion: CDDA 100% Signature: A458483BFEB41FB00AD47AFD74E7E78353E19771FILE: 06. LL Cool J - The G.O.A.T..flac Size: 27207606 Hash: 43047D3633B11AB666CF652231554579 Accuracy: -m0 Conclusion: CDDA 100% Signature: 2912A9CD9D72029D764192747C7B1DC2D31AD6D0FILE: 05. Frank Delour - Put 'em Up.flac Size: 20568481 Hash: 2B11BAED0B92D9BBDD6C825F267C3C5E Accuracy: -m0 Conclusion: CDDA 100% Signature: D2F2926DE5B8A3CD2F7E39882844C892022999F3FILE: 04. Crooklyn Clan - Franklinz 2000.flac Size: 26812716 Hash: 4CB1ED27FF7C47451DD9B125D1521DFF Accuracy: -m0 Conclusion: CDDA 100% Signature: 0E3BF5146B7EB97FF650F5CCD87E207D822FE443FILE: 03. Deadly Avenger - Live At The Capri.flac Size: 25346245 Hash: 7DC50837A3CFB123AF489C27C9369ED7 Accuracy: -m0 Conclusion: CDDA 100% Signature: ECE60DFE2F390F2BD1BBF16398B43D5665DC6E08FILE: 02. Dj Lbr - Megadeath.flac Size: 31571797 Hash: 6CB0998103381FB81DC97F1B8CA4E1D3 Accuracy: -m0 Conclusion: CDDA 100% Signature: 5DFB91E70F677D999B3E1F18577EBE9AEC0C4F9DFILE: 01. Deadly Avenger - We Took Pelham.flac Size: 19337499 Hash: E3F755905DFD68FADEBA53735C3575B4 Accuracy: -m0 Conclusion: CDDA 100% Signature: 005C2E0999629F648B956F6A6E58491B8D9AFF0C

Замер динамического диапазона

foobar2000 1.3.5 / Замер динамического диапазона (DR) 1.1.1Дата отчёта: 2015-03-08 01:01:15
--------------------------------------------------------------------------------Анализ: Ceasefire Vs Deadly Avenger / Fabriclive 04 - Deadly Avenger (1) Crooklyn Clan / Fabriclive 04 - Deadly Avenger (2-3) Deadly Avenger / Fabriclive 04 - Deadly Avenger (4-5) Dj Ace / Fabriclive 04 - Deadly Avenger (6-7) Dj AP / Fabriclive 04 - Deadly Avenger (8) Dj LBR / Fabriclive 04 - Deadly Avenger (9-11) Dynamo Productions / Fabriclive 04 - Deadly Avenger (12) Frank Delour / Fabriclive 04 - Deadly Avenger (13) Jackson 5 / Fabriclive 04 - Deadly Avenger (14) Jackson Sisters / Fabriclive 04 - Deadly Avenger (15) Jimmy Bo Horne / Fabriclive 04 - Deadly Avenger (16) LL Cool J / Fabriclive 04 - Deadly Avenger (17) Maceo And The Macks / Fabriclive 04 - Deadly Avenger (18) Petricone / Fabriclive 04 - Deadly Avenger (19) The Nextmen / Fabriclive 04 - Deadly Avenger (20)--------------------------------------------------------------------------------
DR Пики RMS Продолжительность трека--------------------------------------------------------------------------------DR9 -0.10 дБ -11.57 дБ 5:43 10-CaiprinhaDR10 -0.10 дБ -12.15 дБ 4:17 04-Franklinz 2000DR10 -0.10 дБ -10.81 дБ 3:00 16-Let's Get IllDR10 -0.10 дБ -12.94 дБ 2:56 01-We Took PelhamDR11 -0.10 дБ -12.71 дБ 3:46 03-Live At The CapriDR10 -0.10 дБ -11.23 дБ 2:27 15-Crowd MotivatorDR9 -0.10 дБ -10.50 дБ 2:02 17-Crowd Motivator (Old Skool Dub)DR9 -0.10 дБ -9.61 дБ 2:25 19-Let Me KnowDR11 -0.10 дБ -12.79 дБ 4:29 02-MegadeathDR11 -0.10 дБ -12.84 дБ 2:11 07-Make Some NoiseDR13 -0.10 дБ -14.18 дБ 2:36 08-Let Me Clear My FunkDR9 -0.10 дБ -11.55 дБ 2:29 12-Hit The FloorDR11 -0.10 дБ -11.72 дБ 3:10 05-Put 'em UpDR9 -0.10 дБ -10.81 дБ 2:46 18-I Want You BackDR9 -0.10 дБ -10.42 дБ 4:14 11-I Believe In MiraclesDR11 -0.10 дБ -11.57 дБ 1:47 09-Dance Across The FloorDR10 -0.10 дБ -11.15 дБ 3:54 06-The G.O.A.T.DR10 -0.10 дБ -11.80 дБ 3:08 14-Cross The TracksDR9 -0.10 дБ -10.56 дБ 8:12 20-Handz Across The Water MixDR11 -0.10 дБ -12.43 дБ 4:12 13-Midnight Method--------------------------------------------------------------------------------
Количество треков: 20Реальные значения DR: DR10
Частота: 44100 ГцКаналов: 2Разрядность: 16Битрейт: 850 кбит/сКодек: FLAC================================================================================

Fabriclive 05 - Howie B (2002):

Label/Cat#: Fabric (London) – FABRIC 10
Country: UK
Year: 05 Aug 2002
Genre: Electronic
Style: Leftfield, House, Breaks, Breakbeat
Format: CD, Mixed
Tracklist
1. Skelf – Fish (4:53)
2. Exile – Neuroscan (6:32)
3a Dope Smugglaz – The Word (PMT Remix) (6:10)
3b Lydia Lunch – The Human Animal
4. I Monster – Daydream In Blue (Medicine Remix) (5:58)
5. Blame – Music Takes You (B.L.I.M. Remix) (4:08)
6. Garbage – Cherry Lips (Go Baby Go) (Howie B. Remix) (7:21)
7. Bombing F – Donuts & Coffee (6:56)
8a Lemonescent – Beautiful (Terminalhead Remix) (5:17)
8b Meat Katie – Future Abuse (6:19)
9. DJ Llopis – Clone The Clowns (5:10)
10. Big Hair & Earl Gateshead – Hindoo's And Hairdoo's (Freq Mix) (4:51)
11. Jackal & Hyde – Beyond (5:35)
12. Prince Far I – Foundation Stepper (4:04)
Total length: 01:13:14
More information:

Лог создания рипа

Exact Audio Copy V0.99 prebeta 4 from 23. January 2008
EAC extraction logfile from 25. February 2009, 19:13
Various / Fabric Live 05
Used drive : TSSTcorpCDDVDW TS-L633L Adapter: 1 ID: 0
Read mode : SecureUtilize accurate stream : YesDefeat audio cache : YesMake use of C2 pointers : No
Read offset correction : 6Overread into Lead-In and Lead-Out : NoFill up missing offset samples with silence : YesDelete leading and trailing silent blocks : NoNull samples used in CRC calculations : YesUsed interface : Native Win32 interface for Win NT & 2000Gap handling : Appended to previous track
Used output format : User Defined EncoderSelected bitrate : 128 kBit/sQuality : HighAdd ID3 tag : NoCommand line compressor : C:\Program Files\Exact Audio Copy\Flac\flac.exeAdditional command line options : -V -8 -T "artist=%a" -T "title=%t" -T "album=%g" -T "date=%y" -T "tracknumber=%n" -T "genre=%m" %s
TOC of the extracted CD
Track | Start | Length | Start sector | End sector --------------------------------------------------------- 1 | 0:00.00 | 4:54.27 | 0 | 22076 2 | 4:54.27 | 6:32.68 | 22077 | 51544 3 | 11:27.20 | 6:09.73 | 51545 | 79292 4 | 17:37.18 | 5:57.53 | 79293 | 106120 5 | 23:34.71 | 4:08.60 | 106121 | 124780 6 | 27:43.56 | 7:21.57 | 124781 | 157912 7 | 35:05.38 | 6:56.23 | 157913 | 189135 8 | 42:01.61 | 11:37.30 | 189136 | 241440 9 | 53:39.16 | 5:10.15 | 241441 | 264705 10 | 58:49.31 | 4:51.71 | 264706 | 286601 11 | 63:41.27 | 5:35.43 | 286602 | 311769 12 | 69:16.70 | 4:05.57 | 311770 | 330201
Track 1
Filename D:\EACrips\01. Various - Skelf - Fish.wav
Pre-gap length 0:00:02.00
Peak level 100.0 % Track quality 100.0 % Test CRC 82EB94E6 Copy CRC 82EB94E6 Accurately ripped (confidence 2) [3193A2DA] Copy OK
Track 2
Filename D:\EACrips\02. Various - Exile - Neuroscan.wav
Peak level 100.0 % Track quality 100.0 % Test CRC 67307799 Copy CRC 67307799 Accurately ripped (confidence 2) [AE3D509C] Copy OK
Track 3
Filename D:\EACrips\03. Various - Dope Smugglaz - The Word.wav
Peak level 100.0 % Track quality 100.0 % Test CRC FA201EAF Copy CRC FA201EAF Accurately ripped (confidence 2) [10AA24F2] Copy OK
Track 4
Filename D:\EACrips\04. Various - I Monster - Daydream In Blue.wav
Peak level 100.0 % Track quality 100.0 % Test CRC 312FB578 Copy CRC 312FB578 Accurately ripped (confidence 2) [2E82D188] Copy OK
Track 5
Filename D:\EACrips\05. Various - Blame - Music Takes You.wav
Peak level 100.0 % Track quality 100.0 % Test CRC 2744C390 Copy CRC 2744C390 Accurately ripped (confidence 2) [DE5460CD] Copy OK
Track 6
Filename D:\EACrips\06. Various - Garbage - Cherry Lips (Howie B Remix).wav
Peak level 100.0 % Track quality 100.0 % Test CRC A150E131 Copy CRC A150E131 Accurately ripped (confidence 2) [F139B99B] Copy OK
Track 7
Filename D:\EACrips\07. Various - Bombing F - Donuts & Coffee.wav
Peak level 100.0 % Track quality 100.0 % Test CRC 61107A94 Copy CRC 61107A94 Accurately ripped (confidence 2) [22B0AD2A] Copy OK
Track 8
Filename D:\EACrips\08. Various - Lemonescent - Beautiful.wav
Peak level 100.0 % Track quality 100.0 % Test CRC F99B0E85 Copy CRC F99B0E85 Accurately ripped (confidence 2) [F3FEE0F2] Copy OK
Track 9
Filename D:\EACrips\09. Various - DJ Llopis - Clone The Clowns.wav
Peak level 85.1 % Track quality 100.0 % Test CRC 8286AC50 Copy CRC 8286AC50 Accurately ripped (confidence 2) [B99ACB80] Copy OK
Track 10
Filename D:\EACrips\10. Various - Big Hair And Earl Gateshead - Hindoos and Hairdoos.wav
Peak level 90.5 % Track quality 100.0 % Test CRC D66A49F1 Copy CRC D66A49F1 Accurately ripped (confidence 2) [7D930680] Copy OK
Track 11
Filename D:\EACrips\11. Various - Jackyl & Hyde - Beyond.wav
Peak level 100.0 % Track quality 100.0 % Test CRC 1835F76E Copy CRC 1835F76E Accurately ripped (confidence 2) [C72CAAFF] Copy OK
Track 12
Filename D:\EACrips\12. Various - Prince Far I - Foundation Stepper.wav
Peak level 100.0 % Track quality 100.0 % Test CRC 4B7EA8EA Copy CRC 4B7EA8EA Accurately ripped (confidence 2) [AB08A432] Copy OK
All tracks accurately ripped
No errors occurred
End of status report

Содержание индексной карты (.CUE)

REM GENRE DanceREM DATE 2002REM DISCID A311320CREM COMMENT "ExactAudioCopy v0.99pb4"PERFORMER "Various Artists"TITLE "Fabriclive 05 - Howie B"FILE "01. Skelf - Fish.wav" WAVE TRACK 01 AUDIO PERFORMER "Skelf" TITLE "Fish" INDEX 01 00:00:00FILE "02. Exile - Neuroscan.wav" WAVE TRACK 02 AUDIO PERFORMER "Exile" TITLE "Neuroscan" INDEX 01 00:00:00FILE "03. Dope Smugglaz-Lydia Lunch - The Word (PMT Remix)-The Human Animal.wav" WAVE TRACK 03 AUDIO PERFORMER "Dope Smugglaz/Lydia Lunch" TITLE "The Word (PMT Remix)/The Human Animal" INDEX 01 00:00:00FILE "04. I Monster - Daydream In Blue (Medicine Remix).wav" WAVE TRACK 04 AUDIO PERFORMER "I Monster (Medicine Remix)" TITLE "Daydream In Blue" INDEX 01 00:00:00FILE "05. Blame - Music Takes You (B.L.I.M. Remix).wav" WAVE TRACK 05 AUDIO PERFORMER "Blame" TITLE "Music Takes You (B.L.I.M. Remix)" INDEX 01 00:00:00FILE "06. Garbage - Cherry Lips (Go Baby Go) (Howie B. Remix).wav" WAVE TRACK 06 AUDIO PERFORMER "Garbage" TITLE "Cherry Lips (Go Baby Go) (Howie B. Remix)" INDEX 01 00:00:00FILE "07. Bombing F - Donuts & Coffee.wav" WAVE TRACK 07 AUDIO PERFORMER "Bombing F" TITLE "Donuts & Coffee" INDEX 01 00:00:00FILE "08. Lemonescent-Meat Katie - Beautiful (Terminalhead Remix)-Future Abuse.wav" WAVE TRACK 08 AUDIO PERFORMER "Lemonescent/Meat Katie" TITLE "Beautiful (Terminalhead Remix)/Future Abuse" INDEX 01 00:00:00FILE "09. Dj Llopis - Clone The Clowns.wav" WAVE TRACK 09 AUDIO PERFORMER "Dj Llopis" TITLE "Clone The Clowns" INDEX 01 00:00:00FILE "10. Big Hair And Earl Gateshead - Hindoo's And Hairdoo's (Freq Mix).wav" WAVE TRACK 10 AUDIO PERFORMER "Big Hair And Earl Gateshead" TITLE "Hindoo's And Hairdoo's (Freq Mix)" INDEX 01 00:00:00FILE "11. Jackyl & Hyde - Beyond.wav" WAVE TRACK 11 AUDIO PERFORMER "Jackyl & Hyde" TITLE "Beyond" INDEX 01 00:00:00FILE "12. Prince Far I - Foundation Stepper.wav" WAVE TRACK 12 AUDIO PERFORMER "Prince Far I" TITLE "Foundation Stepper" INDEX 01 00:00:00

Лог проверки качества

-----------------------
DON'T MODIFY THIS FILE
-----------------------
PERFORMER: auCDtect Task Manager, ver. 1.6.0 RC1 build 1.6.0.1Copyright (c) 2008-2010 y-soft. All rights reservedhttp://y-soft.org
ANALYZER: auCDtect: CD records authenticity detector, version 0.8.2Copyright (c) 2004 Oleg Berngardt. All rights reserved.Copyright (c) 2004 Alexander Djourik. All rights reserved.
FILE: 12. Prince Far I - Foundation Stepper.flac Size: 20960647 Hash: E5803E0B668D5E4A3735C7ADED3DCF1A Accuracy: -m0 Conclusion: CDDA 99% Signature: CFD8A220F4CFD0A1BA8E2268AE0169D693F411F5FILE: 11. Jackyl & Hyde - Beyond.flac Size: 35678248 Hash: 766BAD1F013BEAB0550B8126FD886785 Accuracy: -m0 Conclusion: CDDA 100% Signature: 36F4C16412C37CEB4D75FC764158BC903264152FFILE: 10. Big Hair And Earl Gateshead - Hindoo's And Hairdoo's (Freq Mix).flac Size: 32360582 Hash: 6E6A795629E107CBF9C9A27E4281429A Accuracy: -m0 Conclusion: CDDA 100% Signature: 5A77B139FC4A475329EC015760C0075529063AE7FILE: 09. Dj Llopis - Clone The Clowns.flac Size: 30209721 Hash: BB596C0C8A0A0EC303A6790B65715D1A Accuracy: -m0 Conclusion: CDDA 100% Signature: 650B3A3A68737FCEA5E8A34FE6685A863628809EFILE: 08. Lemonescent-Meat Katie - Beautiful (Terminalhead Remix)-Future Abuse.flac Size: 65412157 Hash: CCC93BDED064517FD1805772969F49C8 Accuracy: -m0 Conclusion: CDDA 100% Signature: 6B01EF06ED5443F1A85054528BBF6C04897B6217FILE: 07. Bombing F - Donuts & Coffee.flac Size: 44723744 Hash: 511225544D92688B9E2677B1EC816F3D Accuracy: -m0 Conclusion: CDDA 100% Signature: E3026E07E737ADDC53CD14AB7C64898DC849C6EAFILE: 06. Garbage - Cherry Lips (Go Baby Go) (Howie B. Remix).flac Size: 53992542 Hash: EC6C73F976DF8270E2EF4F58D87AFB11 Accuracy: -m0 Conclusion: CDDA 100% Signature: 28468CD6F5599823AFC1A0A8C9D8F19047BA8CE4FILE: 05. Blame - Music Takes You (B.L.I.M. Remix).flac Size: 29039912 Hash: 5791164F0D6808F011F0AE3E1F736E71 Accuracy: -m0 Conclusion: CDDA 100% Signature: BE4F4602E546D8D4995350036E5E9960EB6A4927FILE: 04. I Monster - Daydream In Blue (Medicine Remix).flac Size: 38278749 Hash: 6B3096F92DFB421B3F37E178E52235BB Accuracy: -m0 Conclusion: CDDA 100% Signature: 2FF93968690C13B1E2802AF618D3E39680E65B3FFILE: 03. Dope Smugglaz-Lydia Lunch - The Word (PMT Remix)-The Human Animal.flac Size: 42745224 Hash: BB5D991DD001DE7838F146505752A11D Accuracy: -m0 Conclusion: CDDA 100% Signature: 02DCE305A287EE7E45562056C3FACF2F1F77D416FILE: 02. Exile - Neuroscan.flac Size: 42157388 Hash: 128BE4FA02414CADC0F443686FC137CC Accuracy: -m0 Conclusion: CDDA 100% Signature: B09CAAD2682F839E87ED4C9C41718D1A4D208C60FILE: 01. Skelf - Fish.flac Size: 29374684 Hash: B8CD02EB6C43FBDB117E70B918FD41F3 Accuracy: -m0 Conclusion: CDDA 100% Signature: EF77CFC4CD16B76BB38189D3F4122B493CC8B335

Замер динамического диапазона

foobar2000 1.3.5 / Замер динамического диапазона (DR) 1.1.1Дата отчёта: 2015-03-08 01:00:52
--------------------------------------------------------------------------------Анализ: Big Hair And Earl Gateshead / Fabriclive 05 - Howie B (1) Blame / Fabriclive 05 - Howie B (2) Bombing F / Fabriclive 05 - Howie B (3) Dj Llopis / Fabriclive 05 - Howie B (4) Dope Smugglaz/Lydia Lunch / Fabriclive 05 - Howie B (5) Exile / Fabriclive 05 - Howie B (6) Garbage / Fabriclive 05 - Howie B (7) I Monster (Medicine Remix) / Fabriclive 05 - Howie B (8) Jackyl & Hyde / Fabriclive 05 - Howie B (9) Lemonescent/Meat Katie / Fabriclive 05 - Howie B (10) Prince Far I / Fabriclive 05 - Howie B (11) Skelf / Fabriclive 05 - Howie B (12)--------------------------------------------------------------------------------
DR Пики RMS Продолжительность трека--------------------------------------------------------------------------------DR8 -0.86 дБ -11.51 дБ 4:52 10-Hindoo's And Hairdoo's (Freq Mix)DR11 0.00 дБ -13.30 дБ 4:09 05-Music Takes You (B.L.I.M. Remix)DR11 0.00 дБ -13.20 дБ 6:56 07-Donuts & CoffeeDR8 -1.40 дБ -10.27 дБ 5:10 09-Clone The ClownsDR11 0.00 дБ -12.86 дБ 6:10 03-The Word (PMT Remix)/The Human AnimalDR11 0.00 дБ -12.87 дБ 6:33 02-NeuroscanDR9 0.00 дБ -10.94 дБ 7:22 06-Cherry Lips (Go Baby Go) (Howie B. Remix)DR11 0.00 дБ -12.08 дБ 5:58 04-Daydream In BlueDR11 0.00 дБ -12.86 дБ 5:36 11-BeyondDR9 0.00 дБ -10.74 дБ 11:37 08-Beautiful (Terminalhead Remix)/Future AbuseDR12 0.00 дБ -14.92 дБ 4:06 12-Foundation StepperDR10 0.00 дБ -11.61 дБ 4:54 01-Fish--------------------------------------------------------------------------------
Количество треков: 12Реальные значения DR: DR10
Частота: 44100 ГцКаналов: 2Разрядность: 16Битрейт: 796 кбит/сКодек: FLAC================================================================================

Fabriclive 06 - Grooverider (2002):

Label/Cat#: Fabric (London) – FABRIC 12
Country: UK
Year: Oct 2002
Genre: Electronic
Style: Drum n Bass
Format: CD, Mixed, Metal Case, Cardboard Sleeve
Tracklist
1. Peshay & Co-Ordinate – You Got Me Burning (feat. Co-Ordinate) (5:59)
2. Ed Rush, Optical & Fierce – Alien Girl (4:45)
3. Danny C – The Mexican (4:34)
4. Mampi Swift – Rebirth (4:35)
5. Special Forces – What I Need (4:14)
6. Total Science – Hotspot (Digital Remix) (2:28)
7. Twisted Individual – Bitch Muzzle (3:35)
8. Ed Rush – Subway (3:09)
9. Origin Unknown – Truly One (4:41)
10. DJ SS – The Lighter (S-Files VIP Mix) (1:48)
11. Bad Company – The Pulse (4:20)
12. Optimus Prime – Amen Slag (4:41)
13. Digital – Deadline (VIP Mix) (3:36)
14. Dillinja – It Ain't Too Loud (2:31)
15. Influx Datum – Back For More (VIP Mix) (4:53)
16. Ram Trilogy – Milky Way (3:48)
17. Krust – Kloakin' King (4:42)
18. Calyx – Wasteground (2:01)
Total length: 01:10:20
More information:

Лог создания рипа

Exact Audio Copy V0.99 prebeta 4 from 23. January 2008
EAC extraction logfile from 23. August 2008, 19:49
Various / Grooverider - Fabriclive 06
Used drive : MATSHITADVD-R UJ-857 Adapter: 0 ID: 1
Read mode : SecureUtilize accurate stream : YesDefeat audio cache : YesMake use of C2 pointers : No
Read offset correction : 102Overread into Lead-In and Lead-Out : NoFill up missing offset samples with silence : YesDelete leading and trailing silent blocks : NoNull samples used in CRC calculations : YesUsed interface : Native Win32 interface for Win NT & 2000Gap handling : Appended to previous track
Used output format : User Defined EncoderSelected bitrate : 128 kBit/sQuality : HighAdd ID3 tag : NoCommand line compressor : C:\Program Files\FLAC\flac.exeAdditional command line options : -V -8 -T "artist=%a" -T "title=%t" -T "album=%g" -T "date=%y" -T "tracknumber=%n" -T "genre=%m" %s
TOC of the extracted CD
Track | Start | Length | Start sector | End sector --------------------------------------------------------- 1 | 0:00.00 | 5:59.40 | 0 | 26964 2 | 5:59.40 | 4:45.20 | 26965 | 48359 3 | 10:44.60 | 4:34.67 | 48360 | 68976 4 | 15:19.52 | 4:35.45 | 68977 | 89646 5 | 19:55.22 | 4:14.60 | 89647 | 108756 6 | 24:10.07 | 2:28.55 | 108757 | 119911 7 | 26:38.62 | 3:35.63 | 119912 | 136099 8 | 30:14.50 | 3:09.72 | 136100 | 150346 9 | 33:24.47 | 4:41.45 | 150347 | 171466 10 | 38:06.17 | 1:48.20 | 171467 | 179586 11 | 39:54.37 | 4:20.10 | 179587 | 199096 12 | 44:14.47 | 4:41.55 | 199097 | 220226 13 | 48:56.27 | 3:36.58 | 220227 | 236484 14 | 52:33.10 | 2:31.67 | 236485 | 247876 15 | 55:05.02 | 4:53.25 | 247877 | 269876 16 | 59:58.27 | 3:48.25 | 269877 | 287001 17 | 63:46.52 | 4:42.65 | 287002 | 308216 18 | 68:29.42 | 2:01.68 | 308217 | 317359
Track 1
Filename C:\Grooverider - FABRICLIVE.06\01 - You Got Me Burning (feat. Co-ordinate).wav
Pre-gap length 0:00:02.00
Peak level 99.9 % Track quality 100.0 % Test CRC 251CC764 Copy CRC 251CC764 Accurately ripped (confidence 7) [BD75ED8A] Copy OK
Track 2
Filename C:\Grooverider - FABRICLIVE.06\02 - Alien Girl.wav
Peak level 99.6 % Track quality 99.9 % Test CRC C675C563 Copy CRC C675C563 Accurately ripped (confidence 7) [7F21826B] Copy OK
Track 3
Filename C:\Grooverider - FABRICLIVE.06\03 - The Mexican.wav
Peak level 99.4 % Track quality 100.0 % Test CRC 6315675C Copy CRC 6315675C Accurately ripped (confidence 7) [488B85CD] Copy OK
Track 4
Filename C:\Grooverider - FABRICLIVE.06\04 - Rebirth.wav
Peak level 99.2 % Track quality 99.9 % Test CRC FAE9B2BF Copy CRC FAE9B2BF Accurately ripped (confidence 7) [29C1D893] Copy OK
Track 5
Filename C:\Grooverider - FABRICLIVE.06\05 - What I Need.wav
Peak level 98.5 % Track quality 100.0 % Test CRC 1A437DB7 Copy CRC 1A437DB7 Accurately ripped (confidence 7) [12E6B56B] Copy OK
Track 6
Filename C:\Grooverider - FABRICLIVE.06\06 - Hotspot (Digital Remix).wav
Peak level 97.5 % Track quality 99.9 % Test CRC 7E1CCB0A Copy CRC 7E1CCB0A Accurately ripped (confidence 7) [5A5608F6] Copy OK
Track 7
Filename C:\Grooverider - FABRICLIVE.06\07 - Bitch Muzzle.wav
Peak level 100.0 % Track quality 99.9 % Test CRC 19186DD3 Copy CRC 19186DD3 Accurately ripped (confidence 7) [201E49D0] Copy OK
Track 8
Filename C:\Grooverider - FABRICLIVE.06\08 - Subway.wav
Peak level 100.0 % Track quality 100.0 % Test CRC B4780C13 Copy CRC B4780C13 Accurately ripped (confidence 7) [56293249] Copy OK
Track 9
Filename C:\Grooverider - FABRICLIVE.06\09 - Truly One.wav
Peak level 99.9 % Track quality 99.9 % Test CRC 29E86F03 Copy CRC 29E86F03 Accurately ripped (confidence 7) [D9278C34] Copy OK
Track 10
Filename C:\Grooverider - FABRICLIVE.06\10 - The Lighter (S-Files VIP Mix).wav
Peak level 98.5 % Track quality 99.9 % Test CRC 2520D7B8 Copy CRC 2520D7B8 Accurately ripped (confidence 7) [205E117F] Copy OK
Track 11
Filename C:\Grooverider - FABRICLIVE.06\11 - The Pulse.wav
Peak level 100.0 % Track quality 100.0 % Test CRC 5FE116CB Copy CRC 5FE116CB Accurately ripped (confidence 7) [19ADA69B] Copy OK
Track 12
Filename C:\Grooverider - FABRICLIVE.06\12 - Amen Slag.wav
Peak level 100.0 % Track quality 100.0 % Test CRC DAF66BF5 Copy CRC DAF66BF5 Accurately ripped (confidence 7) [353B8FC0] Copy OK
Track 13
Filename C:\Grooverider - FABRICLIVE.06\13 - Deadline (VIP Mix).wav
Peak level 100.0 % Track quality 100.0 % Test CRC 773F4534 Copy CRC 773F4534 Accurately ripped (confidence 7) [A9B53750] Copy OK
Track 14
Filename C:\Grooverider - FABRICLIVE.06\14 - It Ain't Too Loud.wav
Peak level 98.4 % Track quality 100.0 % Test CRC 0302A401 Copy CRC 0302A401 Accurately ripped (confidence 7) [92919519] Copy OK
Track 15
Filename C:\Grooverider - FABRICLIVE.06\15 - Back For More (VIP Mix).wav
Peak level 98.7 % Track quality 100.0 % Test CRC A7A79C3F Copy CRC A7A79C3F Accurately ripped (confidence 5) [9319992A] Copy OK
Track 16
Filename C:\Grooverider - FABRICLIVE.06\16 - Milky Way.wav
Peak level 98.5 % Track quality 100.0 % Test CRC 7094BDCA Copy CRC 7094BDCA Accurately ripped (confidence 6) [FF548495] Copy OK
Track 17
Filename C:\Grooverider - FABRICLIVE.06\17 - Kloakin' King.wav
Peak level 99.6 % Track quality 100.0 % Test CRC 88B6A46A Copy CRC 88B6A46A Accurately ripped (confidence 7) [4C24A1F2] Copy OK
Track 18
Filename C:\Grooverider - FABRICLIVE.06\18 - Wasteground.wav
Peak level 100.0 % Track quality 100.0 % Test CRC F1FF742C Copy CRC F1FF742C Accurately ripped (confidence 6) [0D997F13] Copy OK
All tracks accurately ripped
No errors occurred
End of status report

Содержание индексной карты (.CUE)

REM GENRE JungleREM DATE 2002REM DISCID F6108712REM COMMENT "ExactAudioCopy v0.99pb4"PERFORMER "Various Artists"TITLE "Fabriclive 06 - Grooverider"FILE "01. Peshay Feat. Co-Ordinate - You Got Me Burning.wav" WAVE TRACK 01 AUDIO PERFORMER "Peshay" TITLE "You Got Me Burning (feat. Co-ordinate)" INDEX 01 00:00:00FILE "02. Ed Rush & Optical & Fierce - Alien Girl.wav" WAVE TRACK 02 AUDIO PERFORMER "Ed Rush & Optical & Fierce" TITLE "Alien Girl" INDEX 01 00:00:00FILE "03. Danny C - The Mexican.wav" WAVE TRACK 03 AUDIO PERFORMER "Danny C" TITLE "The Mexican" INDEX 01 00:00:00FILE "04. Mampi Swift - Rebirth.wav" WAVE TRACK 04 AUDIO PERFORMER "Mampi Swift" TITLE "Rebirth" INDEX 01 00:00:00FILE "05. Special Forces - What I Need.wav" WAVE TRACK 05 AUDIO PERFORMER "Special Forces" TITLE "What I Need" INDEX 01 00:00:00FILE "06. Total Science - Hotspot (Digital Remix).wav" WAVE TRACK 06 AUDIO PERFORMER "Total Science" TITLE "Hotspot (Digital Remix)" INDEX 01 00:00:00FILE "07. Twisted Individual - Bitch Muzzle.wav" WAVE TRACK 07 AUDIO PERFORMER "Twisted Individual" TITLE "Bitch Muzzle" INDEX 01 00:00:00FILE "08. Ed Rush - Subway.wav" WAVE TRACK 08 AUDIO PERFORMER "Ed Rush" TITLE "Subway" INDEX 01 00:00:00FILE "09. Origin Unknown - Truly One.wav" WAVE TRACK 09 AUDIO PERFORMER "Origin Unknown" TITLE "Truly One" INDEX 01 00:00:00FILE "10. Dj SS - The Lighter (S-Files VIP Mix).wav" WAVE TRACK 10 AUDIO PERFORMER "Dj SS" TITLE "The Lighter (S-Files VIP Mix)" INDEX 01 00:00:00FILE "11. Bad Company - The Pulse.wav" WAVE TRACK 11 AUDIO PERFORMER "Bad Company" TITLE "The Pulse" INDEX 01 00:00:00FILE "12. Optimus Prime - Amen Slag.wav" WAVE TRACK 12 AUDIO PERFORMER "Optimus Prime" TITLE "Amen Slag" INDEX 01 00:00:00FILE "13. Digital - Deadline (VIP Mix).wav" WAVE TRACK 13 AUDIO PERFORMER "Digital" TITLE "Deadline (VIP Mix)" INDEX 01 00:00:00FILE "14. Dillinja - It Ain't Too Loud.wav" WAVE TRACK 14 AUDIO PERFORMER "Dillinja" TITLE "It Ain't Too Loud" INDEX 01 00:00:00FILE "15. Influx Datum - Back For More (VIP Mix).wav" WAVE TRACK 15 AUDIO PERFORMER "Influx Datum" TITLE "Back For More (VIP Mix)" INDEX 01 00:00:00FILE "16. Ram Trilogy - Milky Way.wav" WAVE TRACK 16 AUDIO PERFORMER "Ram Trilogy" TITLE "Milky Way" INDEX 01 00:00:00FILE "17. Krust - Kloakin' King.wav" WAVE TRACK 17 AUDIO PERFORMER "Krust" TITLE "Kloakin' King" INDEX 01 00:00:00FILE "18. Calyx - Wasteground.wav" WAVE TRACK 18 AUDIO PERFORMER "Calyx" TITLE "Wasteground" INDEX 01 00:00:00

Лог проверки качества

-----------------------
DON'T MODIFY THIS FILE
-----------------------
PERFORMER: auCDtect Task Manager, ver. 1.6.0 RC1 build 1.6.0.1Copyright (c) 2008-2010 y-soft. All rights reservedhttp://y-soft.org
ANALYZER: auCDtect: CD records authenticity detector, version 0.8.2Copyright (c) 2004 Oleg Berngardt. All rights reserved.Copyright (c) 2004 Alexander Djourik. All rights reserved.
FILE: 18. Calyx - Wasteground.flac Size: 14149515 Hash: C5168175E2C22EA9BB7D0F4659158234 Accuracy: -m0 Conclusion: CDDA 99% Signature: E9AD0B6E7ADAFE41F5513F879B558CBD66CFBB68FILE: 17. Krust - Kloakin' King.flac Size: 35837758 Hash: 5A6EC49CC9EBE60435F5678BF431ECB2 Accuracy: -m0 Conclusion: CDDA 100% Signature: 778B4FFF3860239A8F75C431EF3B28D0FE3985BCFILE: 16. Ram Trilogy - Milky Way.flac Size: 28692503 Hash: AF4E0341E11C99F6118B190D42C2DCD1 Accuracy: -m0 Conclusion: CDDA 100% Signature: 049B14EB70CF8A3BA3BC1F741C995180F4B2BC69FILE: 15. Influx Datum - Back For More (VIP Mix).flac Size: 38514626 Hash: EA0E63425ACE68CB9E48161D282B826B Accuracy: -m0 Conclusion: CDDA 100% Signature: 1D522A78E8C4FC9D53CA1979B2647C0A6B8FCE6CFILE: 14. Dillinja - It Ain't Too Loud.flac Size: 19924113 Hash: 83281BEF796DF7B6EB76CE95644124CC Accuracy: -m0 Conclusion: CDDA 100% Signature: B871E0B787217A214E7CBA8808629762C0655EB4FILE: 13. Digital - Deadline (VIP Mix).flac Size: 27835445 Hash: CA88B636D76E746FCB39601B544FD469 Accuracy: -m0 Conclusion: CDDA 100% Signature: 88725885EA7C223D9E4BD808C9FD9A198426335BFILE: 12. Optimus Prime - Amen Slag.flac Size: 34690958 Hash: 51B3EAC3826AEB9841AC24A339800CA9 Accuracy: -m0 Conclusion: CDDA 100% Signature: 9DA749198AFCEB8329D2CF1A953AC5A57102C724FILE: 11. Bad Company - The Pulse.flac Size: 32263135 Hash: 3B9C4CEDFDFFA451BF5CB458941B59A6 Accuracy: -m0 Conclusion: CDDA 100% Signature: 02394F54EFD310B3A0A762BDF6B8D6C99E50608EFILE: 10. Dj SS - The Lighter (S-Files VIP Mix).flac Size: 13098634 Hash: 65DAF86A6E2AD62838DBC154659EC4B3 Accuracy: -m0 Conclusion: CDDA 100% Signature: 3837972EC6EBAE26BE1161B5D1A1ADE1C4AF9A56FILE: 09. Origin Unknown - Truly One.flac Size: 36386975 Hash: ECB7618822DAD7A1D6718DF1A189E764 Accuracy: -m0 Conclusion: CDDA 100% Signature: B4F6E2E533F5008B03EF7AB62EAF5F8CF9B18B68FILE: 08. Ed Rush - Subway.flac Size: 22998567 Hash: 43B215827508789E69E7BDBC1379CF0D Accuracy: -m0 Conclusion: CDDA 100% Signature: 73201972E23484FBF8276E09A23C8FFFE6ABC4FDFILE: 07. Twisted Individual - Bitch Muzzle.flac Size: 25075548 Hash: 3AD860179CFF4AD7CED1FF9A42118FCF Accuracy: -m0 Conclusion: CDDA 99% Signature: 0A90D0DDA7A487C15F837E59C581562A6FA6EEC3FILE: 06. Total Science - Hotspot (Digital Remix).flac Size: 18152431 Hash: C2B14DB80CBC3EC4D508E4FBA08A347F Accuracy: -m0 Conclusion: CDDA 100% Signature: E638F03671D4E016E00400B9FCC1406C32FE6107FILE: 05. Special Forces - What I Need.flac Size: 31105873 Hash: 7C7030FF2E320C3375ED064DDEF3F85E Accuracy: -m0 Conclusion: CDDA 99% Signature: 02E77C13C87B26A4D526D40E93E7A1DCA3A313EEFILE: 04. Mampi Swift - Rebirth.flac Size: 35996743 Hash: 52C1A39E8C3D3AF5FE3F0864FF11A428 Accuracy: -m0 Conclusion: CDDA 100% Signature: 01B2C776A0544C6EDDF6D65A28073EC3B79719C1FILE: 03. Danny C - The Mexican.flac Size: 34237131 Hash: 287239D3CF70717914C5A1D39020F372 Accuracy: -m0 Conclusion: CDDA 100% Signature: 8BE648A2AC282D0A00B25124BE8AF1227ACAE1EAFILE: 02. Ed Rush & Optical & Fierce - Alien Girl.flac Size: 35252973 Hash: 8A950EEAE0D3B0DDBFD1E1674DBC5672 Accuracy: -m0 Conclusion: CDDA 100% Signature: DE819CF34A1EB9384E40E6FCC7E31A607012103FFILE: 01. Peshay Feat. Co-Ordinate - You Got Me Burning.flac Size: 44613887 Hash: 7021A3FA0CE3F14F3A198FF479067198 Accuracy: -m0 Conclusion: CDDA 100% Signature: 87A9DA4FF13D358E56B5AA2C947D9F157031100E


[torrentc.info]_t_5652103.torrent
Торрент: Зарегистрирован ·  [ 2018-12-06 19:29 ] ·  bcaf8607ca5d01892ccfe0c0b4e4dfe387cc74df

527 KB

Статус: проверено
Скачан: 0 раз
Размер: 47.05 GB
Оценка: 
(Голосов: 0)
Сказали спасибо: 0  Спасибо
Похожие темы
[Профиль]    [ЛС]
Показать сообщения:    
Ответить на тему

Текущее время: Сегодня 12:54

Часовой пояс: GMT + 7



Вы не можете начинать темы
Вы не можете отвечать на сообщения
Вы не можете редактировать свои сообщения
Вы не можете удалять свои сообщения
Вы не можете голосовать в опросах
Вы не можете прикреплять файлы к сообщениям
Вы можете скачивать файлы