(Progressive Rock, RPI) [CD] The Winstons & EdMsC - Pictures An At Exhibition - 2018, FLAC (image+.cue), lossless

Ответить на тему
Статистика раздачи [Обновить пиров]
Размер:  266 MB   |    Зарегистрирован:  10 дней   |    Скачан:  0 раз

Полного источника не было: Никогда

 
   
 
 
 
Автор Сообщение

torrentc.info

Создавать темы 05-Дек-2018 20:24

[Цитировать]

The Winstons & EdMsC (Esecutori di Metallo su Carta) - Pictures At An Exhibition
[img=right]https://i106.fastpic.ru/big/2018/1205/e7/4d2a852fba...8ecfe7.jpg[/img]
Жанр: Progressive Rock, RPI
Носитель: CD
Страна-производитель диска: Italy
Год издания: 2018
Издатель (лейбл): AMS Records
Номер по каталогу: AMS 289 CD
Страна исполнителя (группы): Italy
Аудиокодек: FLAC (*.flac)
Тип рипа: image+.cue
Битрейт аудио: lossless
Продолжительность: 00:37:12
Источник (релизер): собственный рип
Наличие сканов в содержимом раздачи: да
Треклист:
01. Promenade
02. The Gnome
03. Promenade ("Lead me from tortured dreams")
04. Il vecchio castello
05. Bydło
06. Promenade (Tranquillo)
07. Балетъ невылупившихся птенцовъ
08. Samuel Goldenberg und Schmuÿle
09. Limoges, le marché (La grande nouvelle)
10. Catacombæ (Sepulcrum romanum)
11. Con mortuis in lingua mortua
12. Promenade (Allegro giusto)
13. The Hut of Baba Yaga
14. The Great Gates of Kiev

Лог создания рипа

Exact Audio Copy V1.3 from 2. September 2016
Отчёт EAC об извлечении, выполненном 5. декабря 2018, 10:58
The Winstons & EdMsC / Pictures At An Exhibition
Дисковод: ASUS DRW-24B3ST Adapter: 1 ID: 0
Режим чтения : ДостоверностьИспользование точного потока : ДаОтключение кэша аудио : ДаИспользование указателей C2 : Нет
Коррекция смещения при чтении : 6Способность читать области Lead-in и Lead-out : НетЗаполнение пропущенных сэмплов тишиной : ДаУдаление блоков с тишиной в начале и конце : НетПри вычислениях CRC использовались нулевые сэмплы : ДаИнтерфейс : Встроенный Win32-интерфейс для Win NT/2000
Выходной формат : Пользовательский кодировщикВыбранный битрейт : 1024 kBit/sКачество : ВысокийДобавление ID3-тега : НетУтилита сжатия : C:\Program Files (x86)\Exact Audio Copy\Flac\flac.exeДополнительные параметры : -V -8 -T "Date=%year%" -T "Genre=%genre%" %source%
TOC извлечённого CD
Трек | Старт | Длительность | Начальный сектор | Конечный сектор --------------------------------------------------------------------- 1 | 0:00.00 | 1:46.15 | 0 | 7964 2 | 1:46.15 | 3:08.20 | 7965 | 22084 3 | 4:54.35 | 1:21.26 | 22085 | 28185 4 | 6:15.61 | 5:07.70 | 28186 | 51280 5 | 11:23.56 | 4:07.67 | 51281 | 69872 6 | 15:31.48 | 0:42.72 | 69873 | 73094 7 | 16:14.45 | 1:23.29 | 73095 | 79348 8 | 17:37.74 | 2:00.73 | 79349 | 88421 9 | 19:38.72 | 2:00.09 | 88422 | 97430 10 | 21:39.06 | 1:52.17 | 97431 | 105847 11 | 23:31.23 | 1:34.65 | 105848 | 112962 12 | 25:06.13 | 2:08.12 | 112963 | 122574 13 | 27:14.25 | 4:01.42 | 122575 | 140691 14 | 31:15.67 | 5:55.51 | 140692 | 167367
Характеристики диапазона извлечения и сообщения об ошибках
Выбранный диапазон
Имя файла E:\Torrents-seed\The Winstons & EdMsC - 2018 - Pictures An At Exhibition\The Winstons & EdMsC - Pictures At An Exhibition.wav
Пиковый уровень 98.3 % Скорость извлечения 7.6 X Качество диапазона 100.0 % CRC теста CCDC9F44 CRC копии CCDC9F44 Копирование... OK
Ошибок не произошло
AccurateRip: сводка
Трек 1 отсутствует в базе данныхТрек 2 отсутствует в базе данныхТрек 3 отсутствует в базе данныхТрек 4 отсутствует в базе данныхТрек 5 отсутствует в базе данныхТрек 6 отсутствует в базе данныхТрек 7 отсутствует в базе данныхТрек 8 отсутствует в базе данныхТрек 9 отсутствует в базе данныхТрек 10 отсутствует в базе данныхТрек 11 отсутствует в базе данныхТрек 12 отсутствует в базе данныхТрек 13 отсутствует в базе данныхТрек 14 отсутствует в базе данных
Ни одного трека нет в базе AccurateRip
Конец отчёта
==== Контрольная сумма отчёта 44EEE26B3F51B6468AC40C8CCA3A2FB81247EB7C30337D1A8B650B1C22828EB3 ====

Замер динамического диапазона (DRM)

foobar2000 1.3.17 / Dynamic Range Meter 1.1.1log date: 2018-12-05 10:58:38
--------------------------------------------------------------------------------Analyzed: The Winstons & EdMsC / Pictures At An Exhibition--------------------------------------------------------------------------------
DR Peak RMS Duration Track--------------------------------------------------------------------------------DR12 -1.98 dB -17.88 dB 1:46 01-PromenadeDR7 -0.17 dB -9.37 dB 3:08 02-The GnomeDR11 -6.24 dB -22.70 dB 1:21 03-Promenade (Lead me from Tortured Dreams)DR13 -3.29 dB -20.74 dB 5:08 04-Il vecchio castelloDR13 -0.23 dB -16.10 dB 4:08 05-BydloDR11 -4.56 dB -21.15 dB 0:43 06-Promenade (Tranquillo)DR14 -4.84 dB -22.52 dB 1:23 07-Balletto dei pulcini nel proprio guscioDR13 -1.85 dB -19.52 dB 2:01 08-Samuel Goldenberg und SchmuyleDR12 -0.23 dB -14.27 dB 2:00 09-Limoges, le marche (La grande nouvelle)DR8 -0.21 dB -11.93 dB 1:52 10-Catacombѕ (Sepulcrum romanum)DR9 -0.17 dB -10.76 dB 1:35 11-Promenade (Allegro giusto)DR7 -0.23 dB -10.85 dB 2:08 12-Con mortuis in lingua mortuaDR8 -0.17 dB -10.72 dB 4:02 13-The Hut of Baba YagaDR7 -0.15 dB -9.28 dB 5:56 14-The Great Gates of Kiev--------------------------------------------------------------------------------
Number of tracks: 14Official DR value: DR10
Samplerate: 44100 HzChannels: 2Bits per sample: 16Bitrate: 700 kbpsCodec: FLAC================================================================================

Об альбоме

https://www.discogs.com/The-Winstons-5-EdMsC-Pictures-At-An-Exhibition/release/12719589
Из рецензии с сайта рекорд-лейбла:
"In 2016 The Winstons’ debut album came like a bolt from the blue in the Italian rock scene, and almost made a miracle in binding together two worlds often considered poles apart: indie and progressive rock; the mix of Canterbury sounds (Soft Machine in the first place) and psychedelia (The Doors and The Beatles above all) offered by this new trio turned out to be really peculiar and original.
But even before their eponymous record came out, The Winstons had already played live in November 2015 their own personal reinterpretation of Modest Petrovich Mussorgsky’s “Pictures at an Exhibition”. Today, that effort is finally put on record, thus renewing the partnership between AMS Records and the trio consisting of Enrico Gabrielli (keyboards, wind instruments), Roberto Dell’Era (bass, vocals) and Lino Gitto (drums, vocals).
A title like “Pictures at an Exhibition” and the ‘prog’ term immediately recall the homonymous Emerson, Lake & Palmer’s 1971 LP and, in fact, this record shares some moments with EL&P’s work. But there’s way more in this release, thanks especially to Roberto Izzo’s violin and the presence of Roberto De Gennaro (vibraphone, percussion), who collaborates with Enrico Gabrielli on the project ‘Esecutori di Metallo su Carta’ (EdSmC) and represents the contemporary and avant-garde side of this work.
“Pictures …” is not only exceptional in its musical aspect, but also from the visual point of view, thanks to the wonderful front cover illustration created by Jessica Rassi at her graphic studio The Giant’s Lab..."

Состав

The Winstons:
Enro Winston: piano, eko tiger organ, piano Rhodes, backing vocals
Rob Winston: bass, vocals
Linnon Winston: drums, vocals
Esecutori di Metallo su Carta:
Sebastiano De Gennaro: percussin, vibraphone
Roberto Izzo: violin


[torrentc.info]_t_5654956.torrent
Торрент: Зарегистрирован ·  [ 2018-12-05 20:24 ] ·  ea9a38863d23106862cff7102147b98ec0ad3f48

12 KB

Статус: проверено
Скачан: 0 раз
Размер: 266 MB
Оценка: 
(Голосов: 0)
Сказали спасибо: 0  Спасибо
Похожие темы
[Профиль]    [ЛС]
Показать сообщения:    
Ответить на тему

Текущее время: Сегодня 13:22

Часовой пояс: GMT + 7



Вы не можете начинать темы
Вы не можете отвечать на сообщения
Вы не можете редактировать свои сообщения
Вы не можете удалять свои сообщения
Вы не можете голосовать в опросах
Вы не можете прикреплять файлы к сообщениям
Вы можете скачивать файлы