(Vocal Jazz, Contemporary Jazz, Post-Bop) [CD] Jeff Baker (feat. Brian Blade, Darrell Grant, Steve Wilson, Marquis Hill a.o.) - Phrases - 2018, FLAC (tracks+.cue), lossless

Ответить на тему
Статистика раздачи [Обновить пиров]
Размер:  419 MB   |    Зарегистрирован:  11 дней   |    Скачан:  0 раз

Полного источника не было: Никогда

 
   
 
 
 
Автор Сообщение

torrentc.info

Создавать темы 05-Дек-2018 06:28

[Цитировать]

J E F F ' B A K E R ' P H R A S E S
[img=right]https://c.radikal.ru/c09/1812/8f/269e845d3f1c.jpg[/img]
Жанр: Vocal Jazz, Contemporary Jazz, Post-Bop
Страна-производитель диска: USA
Год издания: 2018
Издатель (лейбл): OA2 Records
Номер по каталогу: OA2 22150
Аудиокодек: FLAC (*.flac)
Тип рипа: tracks+.cue
Битрейт аудио: lossless
Продолжительность: 75:13
Источник (релизер): спасибо Negative_Creep
Наличие сканов: нет

Треклист:
01. Neruda
02. And So It Goes
03. People Of Paper
04. Ballad Of The Sad Young Men
05. Harbor
06. Lost
07. A Hundred Less One
08. Salinger
09. Not 'Cause I Wanted To
10. Stay Alive
11. Don't Worry 'bout Me

Лог создания рипа

Exact Audio Copy V1.1 from 23. June 2015
EAC extraction logfile from 31. January 2018, 6:01
Jeff Baker / Phrases
Used drive : HL-DT-STDVDRAM GP65NS60 Adapter: 1 ID: 0
Read mode : SecureUtilize accurate stream : YesDefeat audio cache : YesMake use of C2 pointers : No
Read offset correction : 6Overread into Lead-In and Lead-Out : NoFill up missing offset samples with silence : YesDelete leading and trailing silent blocks : NoNull samples used in CRC calculations : YesUsed interface : Native Win32 interface for Win NT & 2000Gap handling : Appended to previous track
Used output format : User Defined EncoderSelected bitrate : 1024 kBit/sQuality : HighAdd ID3 tag : NoCommand line compressor : C:\Program Files (x86)\Exact Audio Copy\Flac\flac.exeAdditional command line options : -8 -e -V -T "ARTIST=%artist%" -T "TITLE=%title%" -T "ALBUM=%albumtitle%" -T "DATE=%year%" -T "TRACKNUMBER=%tracknr%" -T "GENRE=%genre%" -T "PERFORMER=%albuminterpret%" -T "COMPOSER=%composer%" %haslyrics%--tag-from-file=LYRICS="%lyricsfile%"%haslyrics% -T "ALBUMARTIST=%albumartist%" -T "DISCNUMBER=%cdnumber%" -T "TOTALDISCS=%totalcds%" -T "TOTALTRACKS=%numtracks%" -T "COMMENT=%comment%" %source% -o %dest%
TOC of the extracted CD
Track | Start | Length | Start sector | End sector --------------------------------------------------------- 1 | 0:00.00 | 6:03.61 | 0 | 27285 2 | 6:03.61 | 8:56.09 | 27286 | 67494 3 | 14:59.70 | 5:39.45 | 67495 | 92964 4 | 20:39.40 | 7:37.36 | 92965 | 127275 5 | 28:17.01 | 8:05.61 | 127276 | 163711 6 | 36:22.62 | 7:48.18 | 163712 | 198829 7 | 44:11.05 | 5:57.28 | 198830 | 225632 8 | 50:08.33 | 5:48.68 | 225633 | 251800 9 | 55:57.26 | 6:57.55 | 251801 | 283130 10 | 62:55.06 | 6:20.58 | 283131 | 311688 11 | 69:15.64 | 5:57.61 | 311689 | 338524
Track 1
Filename D:\Jeff Baker - Phrases 2018 (OA2 22150) [FLAC]\01 - Neruda.wav
Pre-gap length 0:00:02.00
Peak level 96.6 % Extraction speed 3.0 X Track quality 100.0 % Test CRC 72591CFD Copy CRC 72591CFD Track not present in AccurateRip database Copy OK
Track 2
Filename D:\Jeff Baker - Phrases 2018 (OA2 22150) [FLAC]\02 - And So It Goes.wav
Peak level 97.2 % Extraction speed 3.6 X Track quality 100.0 % Test CRC FCD9DC95 Copy CRC FCD9DC95 Track not present in AccurateRip database Copy OK
Track 3
Filename D:\Jeff Baker - Phrases 2018 (OA2 22150) [FLAC]\03 - People Of Paper.wav
Peak level 96.6 % Extraction speed 3.4 X Track quality 99.9 % Test CRC 47132660 Copy CRC 47132660 Track not present in AccurateRip database Copy OK
Track 4
Filename D:\Jeff Baker - Phrases 2018 (OA2 22150) [FLAC]\04 - Ballad Of The Sad Young Men.wav
Peak level 99.4 % Extraction speed 3.9 X Track quality 99.9 % Test CRC 35FFB0A3 Copy CRC 35FFB0A3 Track not present in AccurateRip database Copy OK
Track 5
Filename D:\Jeff Baker - Phrases 2018 (OA2 22150) [FLAC]\05 - Harbor.wav
Peak level 96.6 % Extraction speed 4.7 X Track quality 100.0 % Test CRC 938A7089 Copy CRC 938A7089 Track not present in AccurateRip database Copy OK
Track 6
Filename D:\Jeff Baker - Phrases 2018 (OA2 22150) [FLAC]\06 - Lost.wav
Peak level 96.7 % Extraction speed 5.0 X Track quality 100.0 % Test CRC E0F61DFD Copy CRC E0F61DFD Track not present in AccurateRip database Copy OK
Track 7
Filename D:\Jeff Baker - Phrases 2018 (OA2 22150) [FLAC]\07 - A Hundred Less One.wav
Peak level 96.6 % Extraction speed 5.2 X Track quality 100.0 % Test CRC E2F8C43F Copy CRC E2F8C43F Track not present in AccurateRip database Copy OK
Track 8
Filename D:\Jeff Baker - Phrases 2018 (OA2 22150) [FLAC]\08 - Salinger.wav
Peak level 96.8 % Extraction speed 4.8 X Track quality 99.9 % Test CRC 840E285C Copy CRC 840E285C Track not present in AccurateRip database Copy OK
Track 9
Filename D:\Jeff Baker - Phrases 2018 (OA2 22150) [FLAC]\09 - Not Cause I Wanted To.wav
Peak level 96.8 % Extraction speed 5.7 X Track quality 100.0 % Test CRC F2707241 Copy CRC F2707241 Track not present in AccurateRip database Copy OK
Track 10
Filename D:\Jeff Baker - Phrases 2018 (OA2 22150) [FLAC]\10 - Stay Alive.wav
Peak level 97.0 % Extraction speed 5.2 X Track quality 99.9 % Test CRC 04C716EE Copy CRC 04C716EE Track not present in AccurateRip database Copy OK
Track 11
Filename D:\Jeff Baker - Phrases 2018 (OA2 22150) [FLAC]\11 - Don't Worry Bout Me.wav
Peak level 97.4 % Extraction speed 6.0 X Track quality 100.0 % Test CRC 898E77CF Copy CRC 898E77CF Track not present in AccurateRip database Copy OK
None of the tracks are present in the AccurateRip database
No errors occurred
End of status report
---- CUETools DB Plugin V2.1.6
[CTDB TOCID: ZjHD09BDKsNNbFPYkt4lspQ.fXU-] disk not present in databaseSubmit result: ZjHD09BDKsNNbFPYkt4lspQ.fXU- has been uploaded
==== Log checksum 8AADBD2B33C17545B1EE9FFE0A721627519D3798ABFE202A170B9F5A67244FE4 ====

Содержание индексной карты (.CUE)

REM GENRE JazzREM DATE 2018REM DISCID 9B11A10BREM COMMENT "ExactAudioCopy v1.1"PERFORMER "Jeff Baker"TITLE "Phrases"FILE "01 - Neruda.wav" WAVE TRACK 01 AUDIO TITLE "Neruda" PERFORMER "Jeff Baker" INDEX 01 00:00:00FILE "02 - And So It Goes.wav" WAVE TRACK 02 AUDIO TITLE "And So It Goes" PERFORMER "Jeff Baker" INDEX 01 00:00:00FILE "03 - People Of Paper.wav" WAVE TRACK 03 AUDIO TITLE "People Of Paper" PERFORMER "Jeff Baker" INDEX 01 00:00:00FILE "04 - Ballad Of The Sad Young Men.wav" WAVE TRACK 04 AUDIO TITLE "Ballad Of The Sad Young Men" PERFORMER "Jeff Baker" INDEX 01 00:00:00FILE "05 - Harbor.wav" WAVE TRACK 05 AUDIO TITLE "Harbor" PERFORMER "Jeff Baker" INDEX 01 00:00:00FILE "06 - Lost.wav" WAVE TRACK 06 AUDIO TITLE "Lost" PERFORMER "Jeff Baker" INDEX 01 00:00:00FILE "07 - A Hundred Less One.wav" WAVE TRACK 07 AUDIO TITLE "A Hundred Less One" PERFORMER "Jeff Baker" INDEX 01 00:00:00FILE "08 - Salinger.wav" WAVE TRACK 08 AUDIO TITLE "Salinger" PERFORMER "Jeff Baker" INDEX 01 00:00:00FILE "09 - Not Cause I Wanted To.wav" WAVE TRACK 09 AUDIO TITLE "Not Cause I Wanted To" PERFORMER "Jeff Baker" INDEX 01 00:00:00FILE "10 - Stay Alive.wav" WAVE TRACK 10 AUDIO TITLE "Stay Alive" PERFORMER "Jeff Baker" INDEX 01 00:00:00FILE "11 - Don't Worry Bout Me.wav" WAVE TRACK 11 AUDIO TITLE "Don't Worry Bout Me" PERFORMER "Jeff Baker" INDEX 01 00:00:00

Об альбоме

After a seven-year absence, vocalist/composer/arranger/educator and foremost fan of the Boise State Broncos, Jeff Baker has returned to the studio to add to his already impressive discography, which includes: Baker Sings Chet (OA2, 2004); Monologue (OA2, 2005); Shopping for Your Heart (OA2, 2007); Of Things Not Seen (OA2, 2009).
The distance between the earthy, basic Of Things Not Seen and the present airy and ethereal Phrases is a vast one. Baker increases his instrumentation dramatically, from a quintet on the former to a septet, adding an additional four as a string quartet for several selections. He also pulls all the stops on his composing, having written the majority of the 11 selections included. Foremost of the original compositions are those based on the writings of Pablo Neruda ("Neruda"), JD Salinger ("Salinger"), and Salvador Plascencia ("People of Paper"). Baker's melodies are lofty and light and his voice, solid with a rich hint of androgyny, meld well with the lyrics garnered.
"Ballad of the Sad Young Men" is nearly perfect in its adaptation to the surrounding material. Pianist Darrell Grant does an admirable job keeping this recording's light-as-air approach aloft and moving forward. It is a recognition of Baker's talent that he attracts bassist Clark Sommers and alto saxophonist Steve Wilson into his creative fray. Baker arrived years ago. It is now time for us to pay attention.
(C. Michael Bailey, allaboutjazz.com)

Состав

[img]https://d.radikal.ru/d12/1812/1b/ebedc2512ffe.jpg[/img]
Jeff Baker - vocals
Darrell Grant - piano
Clark Sommers - bass
Brian Blade - drums
Steve Wilson - alto saxophone
Geof Bradfield - tenor saxophone
Marquis Hill - trumpet
Gregory Uhlmann - guitar
string quartet (4, 7):
Blaise Magniere - violin
Marie Wang - violin
Anthony Devroye - viola
Cheng-Hou Lee - cello
Если традиционно ВИА "расшифровывается" как вокально-инструментальный ансамбль, то здесь мы имеем в полной мере вокально-инструментальный альбом: потому как Джефф Бейкер в данном случае не только замечательно поет, но и показал себя также как нетривиальный композитор (он автор 7 из 11 композиций и аранжировщик остальных), выступающий в сопровождении довольно таки немаленького бэнда, причем каждый из музыкантов получил достаточно возможностей продемонстрировать свои умения.
DR=9-11


[torrentc.info]_t_5654836.torrent
Торрент: Зарегистрирован ·  [ 2018-12-05 06:28 ] ·  5ef8f5c4507d8602d600e20d355edf71f24715a4

18 KB

Статус: проверено
Скачан: 0 раз
Размер: 419 MB
Оценка: 
(Голосов: 0)
Сказали спасибо: 0  Спасибо
Похожие темы
[Профиль]    [ЛС]
Показать сообщения:    
Ответить на тему

Текущее время: Сегодня 13:30

Часовой пояс: GMT + 7



Вы не можете начинать темы
Вы не можете отвечать на сообщения
Вы не можете редактировать свои сообщения
Вы не можете удалять свои сообщения
Вы не можете голосовать в опросах
Вы не можете прикреплять файлы к сообщениям
Вы можете скачивать файлы