[TR24][OF] Amira Medunjanin - Silk & Stone - 2014 (Vocal, Balkan Blues, Sevdah, Ethnic Jazz)

Ответить на тему
Статистика раздачи [Обновить пиров]
Размер:  932 MB   |    Зарегистрирован:  8 дней   |    Скачан:  0 раз

Полного источника не было: Никогда

 
   
 
 
 
Автор Сообщение

torrentc.info

Создавать темы 05-Дек-2018 00:53

[Цитировать]

Amira Medunjanin - SILK & STONE--[img=right]https://i108.fastpic.ru/big/2018/1127/84/6756520694...b42884.jpg[/img]
Формат файла записи/Источник записи: [TR24][OF]
Наличие водяных знаков: Нет
Год издания: 2018
Жанр: Vocal, Balkan Blues, Sevdah, Ethnic Jazz
Издатель (лейбл): world village
Продолжительность: 00:50:34
Наличие сканов в содержимом раздачи: Буклет PDF
Формат файла: FLAC (*.flac)
Тип рипа: tracks
Разрядность: 24/96
Формат файла: PCM
Количество каналов: 2.0
Источник (релизер): qobuz.com-Треклист
1. Eleno Kerko (04:28)
2. Cula Jesam Da Se Dragi Zeni (03:07)
3. Kradem Ti Se U Veceri (06:57)
4. Iz Banju Ide Sejtan Devojce (04:24)
5. Sejdefu Majka Budase (06:09)
6. Ima Dana (05:46)
7. Ajde Da Li Znaes, Pametis Milice (05:52)
8. Sto Te Nema (06:18)
9. Telal Vice (07:33)-Amira Medunjanin, vocals
Bojan Zulfikarpašić, piano
Nenad Vasilić, double bass
Stjepan Horvat, double bass (2)
Yurdal Osman Tokcan, oud
Hakan Güngör, kanun
Boško Jović, guitar

Лог проверки качества

foobar2000 1.4 / Dynamic Range Meter 1.1.1log date: 2018-11-27 22:33:57
--------------------------------------------------------------------------------Analyzed: Amira Medunjanin / Silk & Stone--------------------------------------------------------------------------------
DR Peak RMS Duration Track--------------------------------------------------------------------------------DR8 0.00 dB -11.11 dB 4:29 01-Eleno KerkoDR10 0.00 dB -12.00 dB 3:08 02-Cula Jesam Da Se Dragi ZeniDR13 0.00 dB -17.92 dB 6:57 03-Kradem Ti Se U VeceriDR10 0.00 dB -12.14 dB 4:24 04-Iz Banju Ide Sejtan DevojceDR10 0.00 dB -13.79 dB 6:10 05-Sejdefu Majka BudaseDR12 0.00 dB -16.37 dB 5:46 06-Ima DanaDR12 0.00 dB -15.63 dB 5:53 07-Ajde Da Li Znaes, Pametis MiliceDR12 -1.78 dB -18.69 dB 6:18 08-Sto Te NemaDR11 0.00 dB -13.32 dB 7:33 09-Telal Vice--------------------------------------------------------------------------------
Number of tracks: 9Official DR value: DR11Samplerate: 96000 HzChannels: 2Bits per sample: 24Bitrate: 2662 kbpsCodec: FLAC================================================================================

Об альбоме (сборнике)

On her new album, the Sarajevo siren Amira Medunjanin (she now includes her surname...) beguiles us with another selection of traditional Sevdah songs from the Balkan region; her interpretations revealing an unbridled emotional intensity. Silk & Stone is the next stage in Amira Medunjanin’s journey to bring Sevdah, the musical style that is the beating heart of Bosnia, to the world. Silk & Stone is also a continuation of her musical relationships with the Serbian jazz pianist Bojan Z and the South Serbian bass player Nenad Vasilic, but with this new album she again incorporates new instruments into the form: the line-up includes oud and kanun as well as guitar, blurring the borders and demonstrating the versatility and universality of the simple Sevdah formula.


[torrentc.info]_t_5651012.torrent
Торрент: Зарегистрирован ·  [ 2018-12-05 00:53 ] ·  ae2c6eebd8f4a40ae7128da820d8f07791a4cd7c

19 KB

Статус: проверено
Скачан: 0 раз
Размер: 932 MB
Оценка: 
(Голосов: 0)
Сказали спасибо: 0  Спасибо
Похожие темы
[Профиль]    [ЛС]
Показать сообщения:    
Ответить на тему

Текущее время: Сегодня 02:50

Часовой пояс: GMT + 7



Вы не можете начинать темы
Вы не можете отвечать на сообщения
Вы не можете редактировать свои сообщения
Вы не можете удалять свои сообщения
Вы не можете голосовать в опросах
Вы не можете прикреплять файлы к сообщениям
Вы можете скачивать файлы