[TR24][OF] Lucie Silvas - E.G.O. - 2018 (Pop)

Ответить на тему
Статистика раздачи [Обновить пиров]
Размер:  1006 MB   |    Зарегистрирован:  11 дней   |    Скачан:  0 раз

Полного источника не было: Никогда

 
   
 
 
 
Автор Сообщение

torrentc.info

Создавать темы 04-Дек-2018 23:35

[Цитировать]

Lucie Silvas / E.G.O.
[img=right]https://i107.fastpic.ru/big/2018/1129/b5/3770f6f858...bf47b5.jpg[/img]
Формат файла записи/Источник записи: [TR24][OF]
Наличие водяных знаков: Нет
Год издания/переиздания диска: 2018
Жанр: Pop
Издатель (лейбл): Furthest Point
Продолжительность: 49:08
Наличие сканов в содержимом раздачи: Только обложка альбома
Треклист:
01. Kite
02. Girls From California
03. Smoking Your Weed
04. I Want You All To Myself
05. Black Jeans
06. First Rate Heartbreak
07. Everything Looks Beautiful
08. People Can Change
09. My Old Habits
10. Just For The Record
11. E.G.O.
12. Change My Mind
Формат файла: WavPack (*.wv)
Тип рипа: tracks
Разрядность: 24/96
Формат файла: WAV (flac.ape.wv)
Количество каналов: 2.0

Лог проверки качества

foobar2000 1.3.7 / Dynamic Range Meter 1.1.1
--------------------------------------------------------------------------------Analyzed: Lucie Silvas / E.G.O.--------------------------------------------------------------------------------
DR Peak RMS Duration Track--------------------------------------------------------------------------------DR5 -0.59 dB -6.91 dB 3:21 01-KiteDR5 -0.59 dB -7.62 dB 3:50 02-Girls From CaliforniaDR6 -0.59 dB -7.94 dB 3:17 03-Smoking Your WeedDR5 -0.59 dB -9.63 dB 4:19 04-I Want You All To MyselfDR5 -0.59 dB -7.58 dB 5:07 05-Black JeansDR5 -0.59 dB -7.03 dB 4:21 06-First Rate HeartbreakDR5 -0.59 dB -7.81 dB 4:59 07-Everything Looks BeautifulDR6 -0.59 dB -8.56 dB 3:58 08-People Can ChangeDR6 -0.59 dB -8.73 dB 3:28 09-My Old HabitsDR9 -0.59 dB -14.70 dB 4:08 10-Just For The RecordDR6 -0.59 dB -8.87 dB 4:17 11-E.G.ODR6 -0.59 dB -9.06 dB 4:11 12-Change My Mind--------------------------------------------------------------------------------
Number of tracks: 12Official DR value: DR6
Samplerate: 96000 HzChannels: 2Bits per sample: 24Bitrate: 2783 kbpsCodec: FLAC================================================================================
Источник (релизер): https://www.qobuz.com/gb-en/album/ego-lucie-silvas/ki03aewz4bfwb


[torrentc.info]_t_5651734.torrent
Торрент: Зарегистрирован ·  [ 2018-12-04 23:34 ] ·  54a0335a6d2067be8bc33c24cf08d8219ad000e0

21 KB

Статус: проверено
Скачан: 0 раз
Размер: 1006 MB
Оценка: 
(Голосов: 0)
Сказали спасибо: 0  Спасибо
Похожие темы
[Профиль]    [ЛС]
Показать сообщения:    
Ответить на тему

Текущее время: Сегодня 13:30

Часовой пояс: GMT + 7



Вы не можете начинать темы
Вы не можете отвечать на сообщения
Вы не можете редактировать свои сообщения
Вы не можете удалять свои сообщения
Вы не можете голосовать в опросах
Вы не можете прикреплять файлы к сообщениям
Вы можете скачивать файлы