The Kelly Family: We Got Love - Live at Loreley [2018, Rock, Pop, Pop Rock, Folk, Blu-ray, 1080i]

Ответить на тему
Статистика раздачи [Обновить пиров]
Размер:  43.45 GB   |    Зарегистрирован:  11 дней   |    Скачан:  0 раз

Полного источника не было: Никогда

 
   
 
 
 
Автор Сообщение

torrentc.info

Создавать темы 04-Дек-2018 23:35

[Цитировать]

The Kelly Family: We Got Love - Live at Loreley
[img=right]https://a.radikal.ru/a20/1811/cf/dc7b78928de8.png[/img]
Жанр: Rock, Pop, Pop Rock, Folk
Продолжительность: 02:26:46 + 00:25:45
Год выхода: 2018
Треклист:
1. Thunder
2. No Lies
3. I Can't Help Myself
4. Come Back To Me
5. Why Why Why
6. Imagine
7. First Time
8. Key To My Heart
9. Fell In Love With An Alien
10. Fathers Nose
11. Red Shoes
12. We Got Love
13. Loch Lomond
14. The Rose
15. Let My People Go
16. Let It Be
17. When The Boys Come Into Town
18. Keep On Singing
19. Sick Man
20. Drum Solo
21. Please Don't Go
22. The Wolf
23. Madre Tan Hermosa
24. An Angel
25. Only Our Rivers Run Free
26. Dan O'Feefes (Irish Jig)
27. Wearing Of The Green
28. Good Neighbor
29. Nanana
30. Take My Hand
31. Who'll Come With Me (David's Song)
32. Brothers And Sisters
Бонусы:
Making Of (Live At Loreley / 2018) - [00:20:43]
Award Verleihung -[00:05:02]
Качество: Blu-ray
Разрешение видео/развертка: 1080i
Формат файла: BDMV
Видео кодек: H.264
Аудио кодек: DTS, PCM
Видео: MPEG-4 AVC Video / 27968 kbps / 1080i / 25 fps / 16:9 / High Profile 4.1
Аудио#1: LPCM Audio / 2.0 / 48 kHz / 2304 kbps / 24-bit
Аудио#2: DTS-HD Master Audio / 5.1 / 48 kHz / 4563 kbps / 24-bit (DTS Core: 5.1 / 48 kHz / 1509 kbps / 24-bit)

BDInfo

Disc Title: the.kelly.family.we.got.love.live.at.loreley.2018.complete.bluray-mblurayfansDisc Size: 46 655 898 928 bytesProtection: AACSBD-Java: NoExtras: 50Hz ContentBDInfo: 0.5.8
Notes:
BDINFO HOME: Cinema Squid http://www.cinemasquid.com/blu-ray/tools/bdinfo
INCLUDES FORUMS REPORT FOR: AVS Forum Blu-ray Audio and Video Specifications Thread http://www.avsforum.com/avs-vb/showthread.php?t=1155731
********************PLAYLIST: 00003.MPLS********************
Total   Video
Title                                                           Codec   Length  Movie Size      Disc Size       Bitrate Bitrate Main Audio Track                          Secondary Audio Track
-----                                                           ------  ------- --------------  --------------  ------- ------- ------------------                        ---------------------
00003.MPLS                                                      AVC     2:26:46 40 413 554 688  46 655 898 928  36,71   27,97   LPCM 2.0 2304Kbps (48kHz/24-bit)          DTS-HD Master 5.1 4563Kbps (48kHz/24-bit)
DISC INFO:
Disc Title:     the.kelly.family.we.got.love.live.at.loreley.2018.complete.bluray-mblurayfans
Disc Size:      46 655 898 928 bytes
Protection:     AACS
BD-Java:        No
Extras:         50Hz Content
BDInfo:         0.5.8
PLAYLIST REPORT:
Name:                   00003.MPLS
Length:                 2:26:46.079 (h:m:s.ms)
Size:                   40 413 554 688 bytes
Total Bitrate:          36,71 Mbps
VIDEO:
Codec                   Bitrate             Description
-----                   -------             -----------
MPEG-4 AVC Video        27968 kbps          1080i / 25 fps / 16:9 / High Profile 4.1
AUDIO:
Codec                           Language        Bitrate         Description
-----                           --------        -------         -----------
LPCM Audio                      Undetermined    2304 kbps       2.0 / 48 kHz / 2304 kbps / 24-bit
DTS-HD Master Audio             Undetermined    4563 kbps       5.1 / 48 kHz / 4563 kbps / 24-bit (DTS Core: 5.1 / 48 kHz / 1509 kbps / 24-bit)
FILES:
Name            Time In         Length          Size            Total Bitrate
----            -------         ------          ----            -------------
00006.M2TS      0:00:00.000     2:26:36.559     40 409 241 600  36 750
00008.M2TS      2:26:36.559     0:00:09.519     4 313 088       3 624
CHAPTERS:
Number          Time In         Length          Avg Video Rate  Max 1-Sec Rate  Max 1-Sec Time  Max 5-Sec Rate  Max 5-Sec Time  Max 10Sec Rate  Max 10Sec Time  Avg Frame Size  Max Frame Size  Max Frame Time
------          -------         ------          --------------  --------------  --------------  --------------  --------------  --------------  --------------  --------------  --------------  --------------
1               0:00:00.000     0:05:57.360     30 018 kbps     33 097 kbps     00:03:13.800    30 857 kbps     00:05:17.040    30 558 kbps     00:03:27.960    150 074 bytes   436 700 bytes   00:01:49.720
2               0:05:57.360     0:03:41.199     29 775 kbps     33 672 kbps     00:07:24.360    30 852 kbps     00:07:43.319    30 585 kbps     00:07:15.320    148 875 bytes   405 918 bytes   00:07:36.000
3               0:09:38.559     0:03:20.720     29 334 kbps     32 787 kbps     00:11:59.160    30 730 kbps     00:11:09.519    30 558 kbps     00:10:38.559    146 671 bytes   424 612 bytes   00:09:47.120
4               0:12:59.279     0:04:06.760     29 982 kbps     32 599 kbps     00:15:00.839    30 803 kbps     00:15:58.199    30 507 kbps     00:15:58.199    149 909 bytes   424 388 bytes   00:13:27.559
5               0:17:06.040     0:05:33.599     30 086 kbps     35 918 kbps     00:19:10.279    31 324 kbps     00:19:06.360    30 737 kbps     00:19:24.159    150 428 bytes   415 679 bytes   00:20:50.919
6               0:22:39.639     0:03:58.599     29 832 kbps     32 689 kbps     00:23:38.680    30 773 kbps     00:23:34.680    30 497 kbps     00:24:28.519    149 162 bytes   415 693 bytes   00:25:59.440
7               0:26:38.239     0:04:25.920     29 719 kbps     32 503 kbps     00:26:41.839    30 697 kbps     00:30:50.239    30 505 kbps     00:27:58.279    148 593 bytes   424 569 bytes   00:29:38.160
8               0:31:04.160     0:03:03.279     29 828 kbps     33 473 kbps     00:33:02.279    31 039 kbps     00:33:24.160    30 626 kbps     00:33:19.159    149 139 bytes   406 094 bytes   00:31:47.000
9               0:34:07.440     0:04:37.639     29 844 kbps     33 099 kbps     00:35:03.360    30 711 kbps     00:38:13.120    30 538 kbps     00:38:07.839    149 219 bytes   394 853 bytes   00:38:21.480
10              0:38:45.080     0:03:40.680     29 060 kbps     32 726 kbps     00:39:57.959    30 698 kbps     00:40:30.919    30 530 kbps     00:39:48.799    145 302 bytes   417 517 bytes   00:40:10.639
11              0:42:25.760     0:06:15.519     28 000 kbps     34 516 kbps     00:48:16.279    30 904 kbps     00:48:12.319    30 465 kbps     00:45:55.199    139 998 bytes   401 987 bytes   00:43:51.440
12              0:48:41.279     0:03:47.599     29 146 kbps     32 365 kbps     00:49:48.639    30 638 kbps     00:52:16.800    30 482 kbps     00:52:09.040    145 729 bytes   433 870 bytes   00:48:53.480
13              0:52:28.879     0:04:40.680     27 842 kbps     32 718 kbps     00:53:28.519    30 853 kbps     00:53:52.319    30 533 kbps     00:53:20.519    139 211 bytes   411 267 bytes   00:56:19.080
14              0:57:09.559     0:03:39.160     25 956 kbps     32 218 kbps     00:59:20.559    30 717 kbps     00:59:19.639    30 381 kbps     00:58:54.720    129 779 bytes   396 983 bytes   00:58:42.599
15              1:00:48.720     0:04:05.639     27 534 kbps     32 916 kbps     01:02:53.599    30 711 kbps     01:03:08.320    30 424 kbps     01:03:05.479    137 669 bytes   432 728 bytes   01:02:55.480
16              1:04:54.360     0:04:20.239     28 584 kbps     32 772 kbps     01:06:41.320    30 729 kbps     01:06:37.320    30 539 kbps     01:06:32.280    142 922 bytes   405 756 bytes   01:06:23.680
17              1:09:14.599     0:03:22.279     29 017 kbps     33 073 kbps     01:12:09.800    30 893 kbps     01:12:05.800    30 472 kbps     01:10:46.360    145 083 bytes   379 390 bytes   01:12:28.879
18              1:12:36.879     0:03:45.040     28 558 kbps     34 817 kbps     01:15:19.919    31 079 kbps     01:15:16.040    30 677 kbps     01:15:11.000    142 789 bytes   428 406 bytes   01:15:45.639
19              1:16:21.919     0:04:44.240     24 177 kbps     32 167 kbps     01:20:31.680    30 692 kbps     01:19:26.239    30 199 kbps     01:19:21.199    120 883 bytes   352 729 bytes   01:17:31.199
20              1:21:06.160     0:05:34.199     26 979 kbps     38 342 kbps     01:24:40.879    31 149 kbps     01:25:42.599    30 357 kbps     01:21:47.720    134 894 bytes   571 303 bytes   01:22:30.320
21              1:26:40.360     0:04:52.120     24 719 kbps     33 267 kbps     01:30:37.080    30 813 kbps     01:30:33.040    30 492 kbps     01:30:28.040    123 597 bytes   345 439 bytes   01:30:01.519
22              1:31:32.480     0:08:51.680     28 676 kbps     34 828 kbps     01:38:29.919    31 038 kbps     01:36:53.760    30 697 kbps     01:38:20.960    143 379 bytes   393 345 bytes   01:37:10.680
23              1:40:24.160     0:04:09.359     25 206 kbps     32 288 kbps     01:40:35.279    30 694 kbps     01:41:11.360    30 482 kbps     01:41:10.400    126 028 bytes   359 307 bytes   01:41:16.320
24              1:44:33.519     0:05:03.800     26 546 kbps     32 730 kbps     01:46:36.879    30 800 kbps     01:46:35.000    30 536 kbps     01:45:26.960    132 729 bytes   420 865 bytes   01:45:57.919
25              1:49:37.320     0:04:46.319     23 189 kbps     32 115 kbps     01:51:50.199    30 595 kbps     01:52:33.959    30 087 kbps     01:52:07.640    115 944 bytes   356 802 bytes   01:51:44.000
26              1:54:23.639     0:02:13.760     27 591 kbps     32 549 kbps     01:55:28.800    30 750 kbps     01:56:00.440    30 503 kbps     01:55:55.479    137 954 bytes   341 345 bytes   01:55:36.760
27              1:56:37.400     0:01:57.040     29 077 kbps     33 001 kbps     01:58:29.879    30 739 kbps     01:57:45.800    30 541 kbps     01:56:53.600    145 386 bytes   354 867 bytes   01:56:46.120
28              1:58:34.440     0:03:09.839     28 668 kbps     36 113 kbps     02:00:21.480    31 120 kbps     02:00:09.559    30 591 kbps     02:01:21.199    143 340 bytes   414 429 bytes   02:00:22.120
29              2:01:44.279     0:07:45.639     29 053 kbps     32 690 kbps     02:03:30.040    30 824 kbps     02:08:01.559    30 555 kbps     02:03:28.799    145 266 bytes   381 479 bytes   02:04:24.239
30              2:09:29.919     0:02:42.319     29 025 kbps     35 351 kbps     02:12:01.959    31 238 kbps     02:11:57.959    30 779 kbps     02:11:52.960    145 126 bytes   390 374 bytes   02:09:44.959
31              2:12:12.239     0:06:59.800     26 499 kbps     32 413 kbps     02:18:37.599    30 719 kbps     02:17:41.120    30 503 kbps     02:18:20.360    132 496 bytes   373 271 bytes   02:17:42.360
32              2:19:12.040     0:07:24.519     27 080 kbps     34 732 kbps     02:25:44.120    30 892 kbps     02:25:57.919    30 479 kbps     02:21:54.280    135 399 bytes   396 806 bytes   02:25:30.000
33              2:26:36.559     0:00:09.520     3 398 kbps      5 004 kbps      02:26:36.999    3 764 kbps      02:26:36.959    0 kbps          00:00:00.000    17 063 bytes    144 996 bytes   02:26:46.039
STREAM DIAGNOSTICS:
File            PID             Type            Codec           Language                Seconds                 Bitrate                 Bytes           Packets
----            ---             ----            -----           --------                --------------          --------------          -------------   -----
00006.M2TS      4113 (0x1011)   0x1B            AVC                                     8796,400                27 995                  30 781 878 736  167 420 739
00006.M2TS      4352 (0x1100)   0x80            LPCM            und (Undetermined)      8796,400                2 310                   2 540 446 528   14 074 496
00006.M2TS      4353 (0x1101)   0x86            DTS-HD MA       und (Undetermined)      8796,400                4 568                   5 022 291 376   28 674 865
00008.M2TS      4113 (0x1011)   0x1B            AVC                                     9,360                   3 457                   4 044 979       22 112
QUICK SUMMARY:
Disc Title: the.kelly.family.we.got.love.live.at.loreley.2018.complete.bluray-mblurayfansDisc Size: 46 655 898 928 bytesProtection: AACSBD-Java: NoPlaylist: 00003.MPLSSize: 40 413 554 688 bytesLength: 2:26:46.079Total Bitrate: 36,71 MbpsVideo: MPEG-4 AVC Video / 27968 kbps / 1080i / 25 fps / 16:9 / High Profile 4.1Audio: Undetermined / LPCM Audio / 2.0 / 48 kHz / 2304 kbps / 24-bitAudio: Undetermined / DTS-HD Master Audio / 5.1 / 48 kHz / 4563 kbps / 24-bit (DTS Core: 5.1 / 48 kHz / 1509 kbps / 24-bit)
********************PLAYLIST: 00004.MPLS********************
Total   Video
Title                                                           Codec   Length  Movie Size      Disc Size       Bitrate Bitrate Main Audio Track                          Secondary Audio Track
-----                                                           ------  ------- --------------  --------------  ------- ------- ------------------                        ---------------------
00004.MPLS                                                      AVC     0:20:43 4 636 219 392   46 655 898 928  29,84   24,99   LPCM 2.0 1536Kbps (48kHz/16-bit)          LPCM 2.0 1536Kbps (48kHz/16-bit)
DISC INFO:
Disc Title:     the.kelly.family.we.got.love.live.at.loreley.2018.complete.bluray-mblurayfans
Disc Size:      46 655 898 928 bytes
Protection:     AACS
BD-Java:        No
Extras:         50Hz Content
BDInfo:         0.5.8
PLAYLIST REPORT:
Name:                   00004.MPLS
Length:                 0:20:43.080 (h:m:s.ms)
Size:                   4 636 219 392 bytes
Total Bitrate:          29,84 Mbps
VIDEO:
Codec                   Bitrate             Description
-----                   -------             -----------
MPEG-4 AVC Video        24990 kbps          1080i / 25 fps / 16:9 / High Profile 4.1
AUDIO:
Codec                           Language        Bitrate         Description
-----                           --------        -------         -----------
LPCM Audio                      Undetermined    1536 kbps       2.0 / 48 kHz / 1536 kbps / 16-bit
LPCM Audio                      Undetermined    1536 kbps       2.0 / 48 kHz / 1536 kbps / 16-bit
FILES:
Name            Time In         Length          Size            Total Bitrate
----            -------         ------          ----            -------------
00007.M2TS      0:00:00.000     0:20:43.080     4 636 219 392   29 837
CHAPTERS:
Number          Time In         Length          Avg Video Rate  Max 1-Sec Rate  Max 1-Sec Time  Max 5-Sec Rate  Max 5-Sec Time  Max 10Sec Rate  Max 10Sec Time  Avg Frame Size  Max Frame Size  Max Frame Time
------          -------         ------          --------------  --------------  --------------  --------------  --------------  --------------  --------------  --------------  --------------  --------------
1               0:00:00.000     0:08:24.160     25 600 kbps     37 998 kbps     00:03:39.360    34 459 kbps     00:01:21.080    33 999 kbps     00:01:19.960    127 991 bytes   412 932 bytes   00:05:03.839
2               0:08:24.160     0:08:40.079     24 663 kbps     36 792 kbps     00:16:55.639    33 988 kbps     00:09:33.919    33 027 kbps     00:12:50.799    123 313 bytes   479 668 bytes   00:12:52.839
3               0:17:04.239     0:03:38.840     24 363 kbps     36 441 kbps     00:20:18.559    34 107 kbps     00:20:15.519    32 146 kbps     00:20:12.400    121 839 bytes   407 308 bytes   00:19:38.720
STREAM DIAGNOSTICS:
File            PID             Type            Codec           Language                Seconds                 Bitrate                 Bytes           Packets
----            ---             ----            -----           --------                --------------          --------------          -------------   -----
00007.M2TS      4113 (0x1011)   0x1B            AVC                                     1242,920                24 993                  3 883 088 777   21 121 814
00007.M2TS      4352 (0x1100)   0x80            LPCM            und (Undetermined)      1242,920                1 543                   239 673 536     1 491 744
00007.M2TS      4353 (0x1101)   0x80            LPCM            und (Undetermined)      1242,920                1 543                   239 673 536     1 491 744
QUICK SUMMARY:
Disc Title: the.kelly.family.we.got.love.live.at.loreley.2018.complete.bluray-mblurayfansDisc Size: 46 655 898 928 bytesProtection: AACSBD-Java: NoPlaylist: 00004.MPLSSize: 4 636 219 392 bytesLength: 0:20:43.080Total Bitrate: 29,84 MbpsVideo: MPEG-4 AVC Video / 24990 kbps / 1080i / 25 fps / 16:9 / High Profile 4.1Audio: Undetermined / LPCM Audio / 2.0 / 48 kHz / 1536 kbps / 16-bitAudio: Undetermined / LPCM Audio / 2.0 / 48 kHz / 1536 kbps / 16-bit
********************PLAYLIST: 00002.MPLS********************
Total   Video
Title                                                           Codec   Length  Movie Size      Disc Size       Bitrate Bitrate Main Audio Track                          Secondary Audio Track
-----                                                           ------  ------- --------------  --------------  ------- ------- ------------------                        ---------------------
00002.MPLS                                                      AVC     0:05:01 1 126 361 088   46 655 898 928  29,84   24,99   LPCM 2.0 1536Kbps (48kHz/16-bit)          LPCM 2.0 1536Kbps (48kHz/16-bit)
DISC INFO:
Disc Title:     the.kelly.family.we.got.love.live.at.loreley.2018.complete.bluray-mblurayfans
Disc Size:      46 655 898 928 bytes
Protection:     AACS
BD-Java:        No
Extras:         50Hz Content
BDInfo:         0.5.8
PLAYLIST REPORT:
Name:                   00002.MPLS
Length:                 0:05:01.959 (h:m:s.ms)
Size:                   1 126 361 088 bytes
Total Bitrate:          29,84 Mbps
VIDEO:
Codec                   Bitrate             Description
-----                   -------             -----------
MPEG-4 AVC Video        24994 kbps          1080i / 25 fps / 16:9 / High Profile 4.1
AUDIO:
Codec                           Language        Bitrate         Description
-----                           --------        -------         -----------
LPCM Audio                      Undetermined    1536 kbps       2.0 / 48 kHz / 1536 kbps / 16-bit
LPCM Audio                      Undetermined    1536 kbps       2.0 / 48 kHz / 1536 kbps / 16-bit
FILES:
Name            Time In         Length          Size            Total Bitrate
----            -------         ------          ----            -------------
00009.M2TS      0:00:00.000     0:05:01.959     1 126 361 088   29 841
CHAPTERS:
Number          Time In         Length          Avg Video Rate  Max 1-Sec Rate  Max 1-Sec Time  Max 5-Sec Rate  Max 5-Sec Time  Max 10Sec Rate  Max 10Sec Time  Avg Frame Size  Max Frame Size  Max Frame Time
------          -------         ------          --------------  --------------  --------------  --------------  --------------  --------------  --------------  --------------  --------------  --------------
1               0:00:00.000     0:05:01.959     24 994 kbps     35 927 kbps     00:03:24.199    34 078 kbps     00:03:38.319    33 910 kbps     00:03:00.199    124 972 bytes   444 551 bytes   00:04:58.919
STREAM DIAGNOSTICS:
File            PID             Type            Codec           Language                Seconds                 Bitrate                 Bytes           Packets
----            ---             ----            -----           --------                --------------          --------------          -------------   -----
00009.M2TS      4113 (0x1011)   0x1B            AVC                                     301,800                 25 008                  943 415 095     5 131 636
00009.M2TS      4352 (0x1100)   0x80            LPCM            und (Undetermined)      301,800                 1 543                   58 217 888      362 352
00009.M2TS      4353 (0x1101)   0x80            LPCM            und (Undetermined)      301,800                 1 543                   58 217 888      362 352
QUICK SUMMARY:
Disc Title: the.kelly.family.we.got.love.live.at.loreley.2018.complete.bluray-mblurayfansDisc Size: 46 655 898 928 bytesProtection: AACSBD-Java: NoPlaylist: 00002.MPLSSize: 1 126 361 088 bytesLength: 0:05:01.959Total Bitrate: 29,84 MbpsVideo: MPEG-4 AVC Video / 24994 kbps / 1080i / 25 fps / 16:9 / High Profile 4.1Audio: Undetermined / LPCM Audio / 2.0 / 48 kHz / 1536 kbps / 16-bitAudio: Undetermined / LPCM Audio / 2.0 / 48 kHz / 1536 kbps / 16-bit
********************PLAYLIST: 00000.MPLS********************
Total   Video
Title                                                           Codec   Length  Movie Size      Disc Size       Bitrate Bitrate Main Audio Track                          Secondary Audio Track
-----                                                           ------  ------- --------------  --------------  ------- ------- ------------------                        ---------------------
00000.MPLS                                                      AVC     0:00:23 46 147 584      46 655 898 928  15,64   14,92
DISC INFO:
Disc Title:     the.kelly.family.we.got.love.live.at.loreley.2018.complete.bluray-mblurayfans
Disc Size:      46 655 898 928 bytes
Protection:     AACS
BD-Java:        No
Extras:         50Hz Content
BDInfo:         0.5.8
PLAYLIST REPORT:
Name:                   00000.MPLS
Length:                 0:00:23.599 (h:m:s.ms)
Size:                   46 147 584 bytes
Total Bitrate:          15,64 Mbps
VIDEO:
Codec                   Bitrate             Description
-----                   -------             -----------
MPEG-4 AVC Video        14918 kbps          1080i / 25 fps / 16:9 / High Profile 4.1
FILES:
Name            Time In         Length          Size            Total Bitrate
----            -------         ------          ----            -------------
00000.M2TS      0:00:00.000     0:00:09.039     11 421 696      10 108
00002.M2TS      0:00:09.039     0:00:09.039     13 068 288      11 565
00003.M2TS      0:00:18.079     0:00:05.519     21 657 600      31 388
CHAPTERS:
Number          Time In         Length          Avg Video Rate  Max 1-Sec Rate  Max 1-Sec Time  Max 5-Sec Rate  Max 5-Sec Time  Max 10Sec Rate  Max 10Sec Time  Avg Frame Size  Max Frame Size  Max Frame Time
------          -------         ------          --------------  --------------  --------------  --------------  --------------  --------------  --------------  --------------  --------------  --------------
1               0:00:00.000     0:00:23.599     14 918 kbps     31 469 kbps     00:00:22.560    30 294 kbps     00:00:18.560    21 410 kbps     00:00:13.520    74 591 bytes    385 842 bytes   00:00:14.039
STREAM DIAGNOSTICS:
File            PID             Type            Codec           Language                Seconds                 Bitrate                 Bytes           Packets
----            ---             ----            -----           --------                --------------          --------------          -------------   -----
00000.M2TS      4113 (0x1011)   0x1B            AVC                                     8,880                   9 789                   10 865 603      59 173
00002.M2TS      4113 (0x1011)   0x1B            AVC                                     8,880                   11 210                  12 442 881      67 751
00003.M2TS      4113 (0x1011)   0x1B            AVC                                     5,360                   30 896                  20 700 096      112 602
QUICK SUMMARY:
Disc Title: the.kelly.family.we.got.love.live.at.loreley.2018.complete.bluray-mblurayfansDisc Size: 46 655 898 928 bytesProtection: AACSBD-Java: NoPlaylist: 00000.MPLSSize: 46 147 584 bytesLength: 0:00:23.599Total Bitrate: 15,64 MbpsVideo: MPEG-4 AVC Video / 14918 kbps / 1080i / 25 fps / 16:9 / High Profile 4.1


[torrentc.info]_t_5647212.torrent
Торрент: Зарегистрирован ·  [ 2018-12-04 23:34 ] ·  b2554ccaeba066cbbac17e021781882b3381de23

220 KB

Статус: проверено
Скачан: 0 раз
Размер: 43.45 GB
Оценка: 
(Голосов: 0)
Сказали спасибо: 0  Спасибо
Похожие темы
[Профиль]    [ЛС]
Показать сообщения:    
Ответить на тему

Текущее время: Сегодня 13:55

Часовой пояс: GMT + 7



Вы не можете начинать темы
Вы не можете отвечать на сообщения
Вы не можете редактировать свои сообщения
Вы не можете удалять свои сообщения
Вы не можете голосовать в опросах
Вы не можете прикреплять файлы к сообщениям
Вы можете скачивать файлы