Субботний вечер с Николаем Басковым 2018.11.24 [2018, Pop, HDTV, 1080i]

Ответить на тему
Статистика раздачи [Обновить пиров]
Размер:  5.63 GB   |    Зарегистрирован:  12 дней   |    Скачан:  0 раз

Полного источника не было: Никогда

 
   
 
 
 
Автор Сообщение

torrentc.info

Создавать темы 03-Дек-2018 23:05

[Цитировать]

Субботний вечер с Николаем Басковым 2018.11.24
[img=right]https://i95.fastpic.ru/big/2018/1021/7b/aff5e450408...c7167b.png[/img]
Жанр: Pop
Продолжительность: 01:13:00
Год выхода: 2018
Описание: На протяжении 12 лет - это одна из самых любимых программ зрителей телеканала "Россия". В новом сезоне субботние вечера станут еще интереснее - теперь это настоящий музыкально-развлекательный мини-сериал! Неизменный ведущий Николай Басков создает праздничное настроение - фейерверк шуток, энергии и оптимизма. А целая команда блестящих актеров обеспечит настоящее шоу внутри шоу. Они остроумно покажут процесс создания популярной программы с неожиданной стороны: все, что обычно остается за кадром, все, что интересно зрителю! В образе режиссера шоу - Станислав Дужников, его помощницы - Наталия Медведева, продюсера - Эдуард Радзюкевич. В роли сценариста выступит Сергей Рост, парапсихолога сыграет Елена Степаненко, шеф-редактора - Ольга Прокофьева, бармена - Юрий Аскаров, стилиста Юрия Шика - Юрий Гальцев, гостями будут VIP-персоны Алла и Максим, а в роли благодарных поклонниц, жадных до светских сплетен и слухов, выступят знаменитые "Новые Русские Бабки". "Субботний вечер" - это праздничное настроение: любимые песни всех поколений и премьеры новых хитов, знаменитые гости и звездные сюрпризы, а также шутки, юмор, скетчи на актуальные темы недели.
Ведущий: Николай Басков,
Телеканал: Россия 1 HD
Треклист :
01. Анна Семенович, Анастасия Макеева - Как выбрать мужа? (пародия)
02. Александр Буйнов и Александп Маршал - Люди встречаются
03. Елена Ваенга - Я по Питеру гуляя
04. Филипп Киркоров - Любовь или обман
05. Юлианна Караулова - Просто так
06. Лолита - Целую
07. Сосо Павлиашвили с женой Ириной - До утра
08. Вера Брежнева и группа MBAND - Бриллианты
09. группа "Ночные снайперы" (Диана Арбенина) - Разбуди меня
10. Игорь Крутой - Радость моя
11. ARTIK & ASTI - Неделимы
12. Димаш Кудайбергенов - Адажио
Качество: HDTV
Разрешение видео/развертка: 1080i
Формат файла: TS
Видео кодек: H.264
Аудио кодек: MP2
Видео: H264; 1920x1080 (16:9); 25.000 fps; ~10.2 Mb/s
Аудио: MPEG Audio, 48000Hz, 2 channels, 192 Кбит/сек

Отчёт MediaInfo / BDInfo

GeneralID : 1 (0x1)Complete name : F:\Behold TV 222\Субботний вечер с Николаем Басковым 2018.11.24.tsFormat : MPEG-TSFile size : 5.63 GiBDuration : 1 h 13 minOverall bit rate mode : VariableOverall bit rate : 11.0 Mb/s
VideoID : 2292 (0x8F4)Menu ID : 2291 (0x8F3)Format : AVCFormat/Info : Advanced Video CodecFormat profile : Main@L4Format settings : CABAC / 4 Ref FramesFormat settings, CABAC : YesFormat settings, ReFrames : 4 framesCodec ID : 27Duration : 1 h 13 minBit rate : 10.2 Mb/sWidth : 1 920 pixelsHeight : 1 080 pixelsDisplay aspect ratio : 16:9Frame rate : 25.000 FPSStandard : ComponentColor space : YUVChroma subsampling : 4:2:0Bit depth : 8 bitsScan type : InterlacedScan type, store method : Separated fieldsScan order : Top Field FirstBits/(Pixel*Frame) : 0.198Stream size : 5.25 GiB (93%)Color range : LimitedColor primaries : BT.709Transfer characteristics : BT.709Matrix coefficients : BT.709
AudioID : 2295 (0x8F7)Menu ID : 2291 (0x8F3)Format : MPEG AudioFormat version : Version 1Format profile : Layer 2Codec ID : 3Duration : 1 h 13 minBit rate mode : ConstantBit rate : 192 kb/sChannel(s) : 2 channelsSampling rate : 48.0 kHzFrame rate : 41.667 FPS (1152 SPF)Compression mode : LossyStream size : 101 MiB (2%)Language : English

Скриншоты






[torrentc.info]_t_5649637.torrent
Торрент: Зарегистрирован ·  [ 2018-12-03 23:02 ] ·  4583052bfcbd184383a695065390e359b2d0e529

15 KB

Статус: проверено
Скачан: 0 раз
Размер: 5.63 GB
Оценка: 
(Голосов: 0)
Сказали спасибо: 0  Спасибо
Похожие темы
[Профиль]    [ЛС]
Показать сообщения:    
Ответить на тему

Текущее время: Сегодня 12:55

Часовой пояс: GMT + 7



Вы не можете начинать темы
Вы не можете отвечать на сообщения
Вы не можете редактировать свои сообщения
Вы не можете удалять свои сообщения
Вы не можете голосовать в опросах
Вы не можете прикреплять файлы к сообщениям
Вы можете скачивать файлы